<?xml version="1.0" standalone="no"?>
<!DOCTYPE svg PUBLIC "-//W3C//DTD SVG 1.1//EN" "http://www.w3.org/Graphics/SVG/1.1/DTD/svg11.dtd" >
<svg xmlns="http://www.w3.org/2000/svg">
<metadata><json><![CDATA[{
	"author": "LineIcons",
	"description": "HandSparked Free Line Icons for Modern User Interfaces of Web, Mobile, and Desktop App Design & Development Projects",
	"version": "3.0",
	"copyright": "https://lineicons.com/license/",
	"license": "CreativeCommons",
	"url": "https://lineicons.com/"
}]]></json></metadata>
<defs>
  <font id="LineIcons" horiz-adv-x="256">
    <font-face font-family="LineIcons"
      units-per-em="256" ascent="256"
      descent="0" />
    <missing-glyph horiz-adv-x="0" />
    <glyph glyph-name="500px"
      unicode="&#xEA01;"
      horiz-adv-x="256" d="M142.4 224.8C127.6 224.8 112.4 221.6 100.8 216.8C99.6 216.4 99.2 215.2 99.2 214S99.6 211.2 100.4 208.8C100.8 207.2 103.2 202 106.8 203.6C118.8 208 131.2 210.4 142.8 210.4C155.6 210.4 168.8 207.6 181.2 202.4C190.8 198 200 192.4 210 183.6C210.4 183.2 211.6 183.2 212.4 183.2C214 183.2 216.4 184.8 218 186.4C220.8000000000001 189.6 222.4 192 219.6 194.4C210 203.6 200 210 186.8 215.2C172.4 222 157.6 224.8 142.4 224.8zM65.2 88.4S66.4 84.4 66.8 82.8C71.2 73.2 76.8 64.8 84.4 56.8C91.6 49.6 100.8 44 110.4 39.2C120.4 34.8 130.8 33.2 142 33.2C153.2 33.2 163.6 35.6 173.6 39.2C183.2 43.6 191.6 49.2 199.6 56.8C206.8 64 212.4 73.2 217.2 82.8C221.6 92.8 223.2 103.2 223.2 114.4C223.2 125.6 220.8 136.4 217.2 146C212.8 155.6 207.2 164 199.6 172C192.4 179.2 183.2 184.8 173.6 189.6C163.6 194 153.2 196 142 196C130.8 196 120 193.6 110 189.6C102 186.4 88.4 177.6 80.8 169.2V236.4H192.8C197.2 236.4 197.2 242 197.2 244.4S197.2 252.4 192.8 252.4L71.6 251.6C68.4 251.6 66 248.8 66 246V152C66 149.2 70 146.8 73.2 146.4C80 144.8 81.6 146.8 83.2 149.2L83.6 149.6C86.4 153.6 94.4 161.6 94.4 161.6C106.8 174 123.6 180.8 141.2 180.8S175.6 174 188 161.6S207.2 132.4 207.2 114.8S200.4 80 188 67.6C175.6 55.2 158.8 48.4 140.8 48.4C128.8 48.4 117.2 51.2 107.6 58V115.2C107.6 123.2 110.8 130.8 116.8 137.2C123.2 144 132 148.4 141.2 148.4S159.2 145.2 165.6 138.8C171.6 132.4 175.2 124 175.2 115.2C175.2 96 160 81.2 141.2 81.2C137.2 81.2 130.4 82.8 130.4 82.8C126.4 84 124.8 78.4 124.4 77.2C122.8 70.4 125.6 69.2 126 68.8C132.4 67.2 136 66.4 141.6 66.4C168.8 66.4 190.8 88.4 190.8 115.6C190.8 142 168.8 164.8 141.6 164.8C128.8 164.8 116.4 159.6 106.8 150.8C97.6 141.6 92.8 130.4 92.8 118.8V71.6C87.6 77.2 82.8 85.6 79.2 94.8C78 98 74.8 97.6 71.2 96.4C69.2 94 64 92.4 65.2 88.4zM220.8 45.6C219.2 47.2 218 48.4 216.4 48.4C215.2 48.8 214 48.4 213.2 48L212.8 47.6C203.6 38.4 193.6 31.2 181.6 26.8C169.6 21.6 156.8 18.8 143.2 18.8C130.4 18.8 117.2 21.6 104.8 26.8C92.8 32 82.8 38.8 73.6 47.6C64.4 57.2 57.2 67.2 52.8 78.8C48.4 89.6 47.2 98 46.4 100.8V101.2C46 104 43.2 104.4 38.4 104C37.2 103.2 32 102.8 32 98.8C33.6 89.6 36 80.8 39.2 72.8C44.8 59.2 53.2 47.6 63.6 37.2C74.4 26.4 86 18.8 99.2 12.8C113.2 7.2 128 3.6 143.2 3.6S173.2 6.4 187.2 12.8C200.8 18.4 212.4 26.8 222.8 37.2L223.2 37.6C224 38.8 225.2 40.8 220.8 45.6zM122.8 102C122.8 100.4 124.4 99.2 125.2 98L125.6 97.6C127.2 96 128.4 95.2 130 95.2C131.6 95.2 131.6 95.6 131.6 95.6L140.8 104.8L149.2 96.4C149.6 96 150.8 95.2 152 94.8C153.6 94.8 154.8 95.2 156.4 97.2C160.4 101.2 158 102.8 156.8 104L148.4 112.4L157.6 122C159.2 124.4 158 126.4 156 128C153.2 130.8 150.8 130.8 149.2 129.6L140 121.6L131.6 130.8C131.2 131.2 130.4 131.2 130 131.2C128.8 131.2 127.2 130.8 125.6 128.8C122.8 126 122.4 124.4 124 122.4L133.2 113.2L124.8 103.6C123.2 103.6 122.8 102.8 122.8 102z" />
    <glyph glyph-name="add-files"
      unicode="&#xEA03;"
      horiz-adv-x="256" d="M155.2 166.8H134.8V187.2C134.8 191.2 131.6 194.4 127.6 194.4S120.4 191.2 120.4 187.2V166.8H100C96 166.8 92.8 163.6 92.8 159.6S96 152.4 100 152.4H120.4V132C120.4 128 123.6 124.8 127.6 124.8S134.8 128 134.8 132V152.4H155.2C159.2 152.4 162.4 155.6 162.4 159.6S159.2 166.8 155.2 166.8zM199.2 250.8H56.8C45.6 250.8 36.8 241.6 36.8 230.8V95.2C36.8 89.6 39.2 84.4 43.2 80.8L118 10.4C121.6 6.8 126.8 4.8 132 4.8H200C211.2 4.8 220 14 220 24.8V230.8C219.2 242 210.4 250.8 199.2 250.8zM60.8 83.2H114.8C118 83.2 120.8 80.8 120.8 77.6V26.8L60.8 83.2zM205.2 25.2C205.2 22 202.4 19.2 199.2 19.2H135.2V77.6C135.2 88.4 126 97.2 115.2 97.2H50.8V230.8C50.8 234 53.6 236.8 56.8 236.8H199.2C202.4 236.8 205.2 234 205.2 230.8V25.2z" />
    <glyph glyph-name="adobe"
      unicode="&#xEA06;"
      horiz-adv-x="256" d="M160 231.6H252V25.2L160 231.6zM96 231.6H4V25.2L96 231.6zM128 154.4L185.6 24H146.8L130 65.6H87.6L128 154.4z" />
    <glyph glyph-name="agenda"
      unicode="&#xEA04;"
      horiz-adv-x="256" d="M188 250.8H68C57.6 250.8 48.8 242.4 48.8 231.6V49.6C48.8 39.6 56.4 31.6 66 30.8V16C66 12.4 70.4 10.4 73.2 12.8L73.6 13.2C75.2 14.4 77.6 14.4 79.2 13.2L79.6 12.8C82.4 10.4 86.8 12.4 86.8 16V30.8H188C198.4 30.8 207.2 39.2 207.2 50V232C207.2 242.4 198.4 250.8 188 250.8zM161.6 175.2H193.2V117.2H161.6V175.2zM147.6 117.2H62.8V175.2H147.6V117.2zM193.2 232V189.2H161.6V236.8H188C190.8 236.8 193.2 234.8 193.2 232zM68 236.8H147.6V189.2H62.8V232C62.8 234.8 65.2 236.8 68 236.8zM62.8 50V103.2H147.6V45.2H68C65.2 45.2 62.8 47.2 62.8 50zM188 45.2H161.6V103.2H193.2V50C193.2 47.2 190.8 45.2 188 45.2z" />
    <glyph glyph-name="airbnb"
      unicode="&#xEA02;"
      horiz-adv-x="256" d="M128 63.2C114 80.8 106 96 103.2 109.6C90.8 158.8 165.6 158.8 153.2 109.6C150 96 141.6 80 128 63.2zM204 22.8C180.8 12.8 157.6 28.8 138 50.4C195.6 122.4 164 161.6 128 161.6C97.6 161.6 80.8 136.4 87.6 106C91.6 89.6 101.6 71.6 118 50.8C100 31.2 84.8 21.6 70.8 20.4C43.2 16 21.6 42.8 32 70.4C40.4 92 94 198.4 96.4 204C104.8 220.8 110.4 235.6 129.2 235.6C147.2 235.6 153.6 221.6 162.4 202.4C182.8 163.6 212 104.4 226 70.4C232 52.4 224.4 31.2 204 22.8zM230.4 98C158.8 249.6 154.8 252 128 252C102.8 252 92 234.4 81.2 212C22 94 16.8 78 15.6 76C2 37.6 30.8 4 65.2 4C77.2 4 99.2 7.2 127.6 38.4C160.4 2.8 184 4 190 4C224.8 4 253.6 38 239.6 76C240 78.4 230.4 97.6 230.4 98z" />
    <glyph glyph-name="alarm"
      unicode="&#xEA07;"
      horiz-adv-x="256" d="M232.4 39.2L224 52.4C222 55.2 221.2 58 221.2 61.2V147.2C221.2 170.8 211.2 193.2 192.8 209.6C177.2 223.6 156.8 232 135.2 233.6V244C135.2 248 132 251.2 128 251.2S120.8 248 120.8 244V234C119.2 234 117.6 233.6 116 233.6C69.6 228.4 34 190.4 34 146V61.2C33.6 57.6 32.8 54.8 31.6 52.8L23.6 39.2C21.6 35.6 21.6 31.6 23.6 28.4C25.6 25.2 28.8 23.2 32.8 23.2H120.8V12C120.8 8 124 4.8 128 4.8S135.2 8 135.2 12V23.2H223.2C227.2 23.2 230.4 25.2 232.4 28.4C234.4 32 234.4 36 232.4 39.2zM38.8 37.2L44 45.6C46 49.6 47.6 54 48 59.6V145.6C48 183.2 78 214.8 117.6 219.2C142 222 165.6 214.4 183.2 198.8C198.8 184.8 207.2 166.4 207.2 146.8V60.4C207.2 54.8 208.8 49.2 212 44L216.8 36.4H38.8z" />
    <glyph glyph-name="alarmclock"
      unicode="&#xEA08;"
      horiz-adv-x="256" d="M175.2 114H135.2V154.8C135.2 158.8 132 162 128 162S120.8 158.8 120.8 154.8V114H117.2C113.2 114 110 110.8 110 106.8S113.2 99.6 117.2 99.6H120.8V96C120.8 92 124 88.8 128 88.8S135.2 92 135.2 96V100H175.2C179.2 100 182.4 103.2 182.4 107.2S178.8 114 175.2 114zM239.6 181.6C239.6 202.8 222.4 220.4 200.8 220.4C190 220.4 180 216 173.2 208.4C161.6 214 148.4 217.2 134.8 218.4V236.8H148.8C152.8 236.8 156 240 156 244S152.8 251.2 148.8 251.2H106.8C103.2 250.8 100 248 100 244S103.2 236.8 107.2 236.8H121.2V218C107.6 217.2 94.8 213.6 82.8 208C75.6 215.6 65.6 220 55.2 220C34 220 16.4 202.8 16.4 181.2C16.4 170 21.2 159.6 29.6 152.4C24.4 139.6 21.6 126 21.6 111.6C21.6 52.8 69.6 4.8 128.4 4.8S235.2 52.8 235.2 111.6C235.2 126 232.4 140 227.2 152.4C234.8 160 239.6 170.4 239.6 181.6zM201.2 206C214.8 206 226 194.8 226 181.2C226 175.2 224 170 220.4 165.6C212 180 200.4 192 186.8 200.8C190.4 204.4 195.6 206 201.2 206zM30.4 181.6C30.4 195.2 41.6 206.4 55.2 206.4C60.8 206.4 66 204.4 70 201.2C56 192 44.4 180 36 165.6C32.4 170 30.4 175.6 30.4 181.6zM128 18.8C76.8 18.8 35.2 60.4 35.2 111.6C35.2 162.8 76.8 204.4 128 204.4C179.2 204.4 220.8 162.8 220.8 111.6C220.8 60.8 179.2 18.8 128 18.8z" />
    <glyph glyph-name="altassian"
      unicode="&#xEA05;"
      horiz-adv-x="256" d="M77.2 137.2C73.2 141.2 67.6 141.2 65.2 136L4.8 14.8C2.4 10.4 6 4 11.6 4H96C98.8 4 101.6 5.6 102.8 8C120.8 46 109.6 103.2 77.2 137.2zM122 248C63.6 154.4 118 79.6 153.6 8C154.8 5.6 157.6 4 160.4 4H244.8C250.4 4 254 9.6 251.6 14.8C251.6 14.8 138.4 242.4 135.6 248C132 253.2 125.2 253.2 122 248z" />
    <glyph glyph-name="amazon-original"
      unicode="&#xEA09;"
      horiz-adv-x="256" d="M224 71.2C193.6 58.4 160.4 52 130.4 52C86.4 51.6 43.2 64 8 84.8C5.2 86.4 2.4 83.6 5.2 80.8C37.2 51.6 80 34 127.6 34C161.6 34 200.8 44.8 228 64.4C232.8 68 228.8 73.2 224 71.2zM250.8 86.4C248 90.4 222.8 93.2 206.8 82.4C204.4 80.8 205.2 78.4 207.2 78.4C215.6 79.6 235.2 81.6 238.8 77.2S234.8 54.8 232 46.4C230.8 44 233.2 43.2 235.2 44.8C250.4 57.2 254.4 82.8 250.8 86.4zM140.4 173.2C127.6 172 110 170.8 98 165.2C84 159.2 73.6 146.8 73.6 128.4C73.6 104.8 88.4 92.8 107.6 92.8C123.2 92.8 132.4 96.8 144.8 109.2C148.8 103.6 150.4 100 157.6 94C159.2 93.6 161.6 93.6 163.2 94.4C167.6 98.4 176 105.6 180.8 109.2000000000001C182.4 110.8 182.4 113.2000000000001 180.8 114.8000000000001C176.8 120.4 172.4 124.8000000000001 172.4 135.6V171.2000000000001C172.4 186.0000000000001 173.6 200.0000000000001 162.4 210.0000000000001C154 218.4 139.2 221.2000000000001 128.4 221.2000000000001C106.8 221.2000000000001 83.2 213.2000000000001 78.4 186.8000000000001C78 184.0000000000001 80 182.4 81.2 182.4L102.8 180C105.2 180 106 182.4 106.8 184C108.4 193.2000000000001 116 197.6 124.8 197.6C129.2 197.6 134.8 196 137.6 192C140.4 187.6 140.4 180.8 140.4 175.6V173.2zM136 126.4C132.8 120.4 126.8 116.4 120.8 116.4C112.4 116.4 106.8 123.2 106.8 132.8C106.8 152 124.4 155.2 140 155.2V150C140.4 142 140.4 134.4 136 126.4z" />
    <glyph glyph-name="amazon-pay"
      unicode="&#xEA0A;"
      horiz-adv-x="256" d="M4 98C4 98.4 4.4 99.2 5.2 99.2C6 99.6 7.2 99.2 8 98.8C12.4 96.4 16.4 94.4 20.8 92C37.2 84 54.8 78 72.4 73.2C80.8 71.6 89.2 70 98 68.8C110.8 67.2 123.6 66.4 136.4 67.2C143.2 67.2 150.4 67.6 158 68.8C180.4 71.6 203.2 77.2 224 86.4C225.2 86.8 226.4 86.8 228 86.8C230.8 86.4 231.2 83.6 229.6 81.2C228.4 80 227.2 79.6 225.6 78.4C213.2 69.9999999999999 199.6 63.5999999999999 185.6 59.2C175.6 56.4 165.2 53.6 155.2 52.4C136.4 50.4 116.8 49.9999999999999 98 52.8C86.8 54.4 76 57.2 65.2 61.2C58.8 63.6 52.4 66.4 46.4 69.2C40.4 72.4 34.4 75.6 28.4 79.2C22.4 84 17.2 88 11.6 92C10.8 92.8 9.6 93.6 8.8 94.4C8 95.2 7.2 96.4 5.6 96.4C5.2 96.4 4.8 96.8 4.4 96.8C4.4 97.6 4 97.6 4 98zM68 204.4L66.4 204C60.8 203.6 55.6 201.2 51.2 197.6C50 197.2 49.6 196 48.4 195.2V195.6C48.4 196.8 48 198 48 198.8C47.6 200.4 46.8 201.6 45.2 201.6H40C37.2 201.6 36.8 201.2 36.8 198.4V112.4C36.8 111.2 37.2 110.8 38.4 110.8H46.8C48 110.8 48.4 111.2 48.4 112.4V142.8L48.8 142.4C56 136 64 134.4 73.6 136C81.6 137.6 87.6 142.8 91.6 150C94.4 155.6 95.6 162 96 168C96.4 174.8 95.6 181.6 93.2 188.4C90 196.4 84 201.2 75.2 203.6C74 204 72.4 204 71.2 204C70.8 204.4 69.6 204.4 68 204.4zM49.2 186.8C49.2 187.2 49.6 188 49.6 188C55.2 192 61.6 193.6 68.4 193.6C74.8 193.2 79.2 190.4 82 182.8C83.6 178.4 83.6 173.6 83.6 169.2S83.2 160.8 82 156.8C79.2 148.4 72.8 144.8 64.4 144.8C58.8 145.2 53.6 147.2 49.2 150.4V152V168.8V186.8zM132.4 204.4H131.2C127.2 204.4 123.2 204 119.2 202.8C116.8 202.4 114 201.2 112 200.4C110.4 200 109.6 198.8 109.6 197.6V193.6C109.6 192 110 191.2 112.4 192C115.2 192.4 118.8 193.6 122 194.4C127.2 194.8 132 195.6 137.2 194.8C140 194.4 142.4 193.6 144 191.6C145.6 190 145.6 187.2 146.4 184.8V174.4H146C141.6 175.6 137.6 176 133.2 176C128.8 176.4 124 176 119.6 174.4C114 172.8 110.4 169.2 107.6 164.4C106 160.4 105.2 156.4 106 152C106.4 146.4 109.2 142 114.4 139.2C118.8 136.4 124.4 136.4 129.6 136.8C136 137.2 141.6 140 146 144C146.4 144 146.4 144.4 146.4 144.4C146.8 142.8 146.8 141.6 146.8 140C147.2 138.8 148 138.4 149.2 138.4H156C157.2 138.4 157.6 138.8 157.6 140V183.2C157.6 184.8 157.6 186.4 157.2 188.8C156.8 194.4 154.4 198.4 149.2 201.2C146.4 202.8 143.6 203.6 140 204C138.4 204.4 137.2 204.4 135.6 204.4H132.4zM146.8 152.4C146.8 152 146.4 152 146.4 151.2C142 148.4 136.8 145.6 131.2 144.8C128.8 144.4 126.8 144.8 124.4 145.2C122 145.6 120 148 119.2 150.8C118.8 153.6 118.8 156.4 119.2 158.8C120.4 162 122.4 164.4 126 165.2C128.8 166.4 132.8 166.4 136 165.6C139.2 165.2 142.8 165.2 146 164C146.4 164 146.4 163.6 146.4 162.8V157.2C146.4 155.6 146.8 154 146.8 152.4zM251.2 99.6C251.2 100.8 250.4 102 248.8 102.8C244.8 104.8 239.2 105.2 234.8 105.2C225.6 105.6 215.2 103.2 207.2 98C206.8 97.6 206 97.6 205.6 96.4C205.2 96 205.2 95.2000000000001 205.2 94.8S205.6 94.4 206.8 94.4H207.2C210 94.8 213.6 94.8 216.4 95.6C222 96.8 229.2 96.4 234.8 95.6C236 95.2 236.8 95.2 237.6 94.4C239.2 93.2000000000001 239.2 90.8 238.8 88.8C237.6 80 234.4 70.8 230 63.2000000000001C229.6 62.8 229.6 62.4 229.6 62.0000000000001C229.6 61.2000000000001 230.8 60.8000000000001 231.6 60.8000000000001C232.4 61.2000000000001 233.2 61.6000000000001 233.6 62.4000000000001C234.8 63.6000000000001 236 64.8000000000001 236.8 66.0000000000001C240.8 70.8000000000001 243.6 76.8000000000001 246 82.8000000000001C248.4 87.6000000000001 251.6 94.0000000000001 251.2 99.6000000000001zM198.8 149.6C193.2 163.6 188 178.4 182.8 193.2C182.4 195.6 181.2 197.6 180 200C179.6 201.2 178.8 201.6 177.2 201.6H168C166.8 201.6 166.4 201.2 166.8 200C167.2 199.6 167.2 198.4 167.2 197.6C175.2 178 183.2 158 191.6 138.8C192 137.2 192 136 191.6 134.4C190.4 131.6 189.2 128 187.6 125.2C186.4 122.4 184.8 120.8 181.2 119.6C179.6 118.4 177.2 118.4 175.6 118.4C174.4 118.4 174 118.8 172.8 118.8C171.2 118.8 171.2 118.4 171.2 117.2V113.2C171.2 110.8 171.6 110.4 174 110S178.4 109.6 180.8000000000001 109.6C187.6000000000001 109.6 193.2000000000001 112.4 196.8000000000001 118C198.4 120.4 199.6000000000001 123.2 200.8000000000001 125.2C210.4 149.6 220 173.6 229.6000000000001 198C230.0000000000001 198.4 230.0000000000001 199.6 230.0000000000001 200.4C230.0000000000001 201.6 229.6000000000001 202 228.4000000000001 202H220.4000000000001C218.8000000000001 202 217.6000000000001 201.6 217.6000000000001 200.4C217.2000000000001 200 217.2000000000001 199.2 217.2000000000001 198.8L203.2000000000001 157.6C202.0000000000001 154.8 201.6000000000001 152 200.4 148.4C198.8000000000001 148.8 198.8000000000001 149.6 198.8000000000001 149.6z" />
    <glyph glyph-name="amazon"
      unicode="&#xEA0B;"
      horiz-adv-x="256" d="M119.2 104C120 104 120.8 104 122.4 104.4H123.6C130.8 106 136.4 110.8 140 118C141.6 121.2 142.8 124.4 143.6 127.6C144.4 130.4 144.8 133.2 144.8 136V149.2C144.8 153.2 141.6 156.4 137.6 156.4C129.2 156.4 123.6 156 119.2 154.8C105.2 150.8 97.6 141.2 97.6 127.2C97.6 120.8 99.2 115.6 102.8 110.8C108 106.4 113.2 104 119.2 104zM123.6 141.2C125.2 141.6 127.6 142 131.2 142.4V136C131.2 134.8 130.8 133.2 130.4 130.8C130 128.8 129.2 126.8 128 124.8C126.4 121.2 124 119.2 120.8 118.4C120.4 118.4 119.6 118.4 118.8 118C116.8 118 115.6 118.8 114.4 120C112.8 122 112.4 124.4 112.4 127.2C112.4 134.8 115.6 139.2 123.6 141.2zM86 175.6C74.8 171.2 66 164 59.6 155.2C53.2 145.6 50 134.4 50 121.6C50 104.8 54.8 92 64.8 82.8C74.4 73.6 86.8 68.8 101.6 68.8C110.8 68.8 118.4 69.6 124.8 71.6C133.2 74 141.6 79.2 150 87.2C154.8 81.6 161.2 74 163.2 72.4C163.6 72 164 71.6 164.8 71.2C166.8 70 169.2 69.6 171.6 69.6C174.8 69.6 177.2 70.4 179.6 72C180 72.4 207.2 93.6 207.2 100.8C207.2 103.2000000000001 206.4 105.6000000000001 204.8 108.4C204.8 108.8 204.4 108.8 204.4 109.2000000000001C201.6 112.8000000000001 200 115.2000000000001 198.4 117.2000000000001C197.6 118.0000000000001 196.8 120.0000000000001 196 122.8000000000001C195.2 125.6000000000001 194.8 128.8000000000001 194.8 132.4V193.2C194.8 196 194.8 198.4 194.4 200C194 205.2 193.6 206.8 193.2 208C190.4 218 180.8 249.6 129.2 251.6C128 251.6 103.6 252.4 81.6 241.2C69.2 234.8 59.6 220 55.6 201.6C55.2 200 55.2 198.8 55.2 198C55.2 192 58.8 187.6 65.2 186.4H65.6L94.4 182.8H96.8C102.4 184 106 188.4 107.2 194C108 197.6 109.6 200.4 112.4 202.4C118.4 207.2 124.8 206.8 124.8 206.8H125.2C129.6 206.8 132.4 205.2 134.8 201.6C135.2 201.2 136.8 198 137.2 186C130 185.2 124.8 184.8 121.2 184.4C108 182.8 96 179.6 86 175.6zM140 172L144.8 172.4C148.4 172.8 151.2 175.6 151.2 179.2V184C151.2 196.4 149.6 204.8 146.4 209.6C141.2 217.2 134 220.8 125.2 220.8C123.2 220.8 112.8 220.8 103.2 213.2C98 209.2 94.4 203.6 92.8 196.8L68.8 199.6C72 213.2 78.8 224 87.2 228.4C105.6 238 127.6 237.2 127.6 237.2C168.8 236 176.4 212.4 177.6 205.6V204.8C177.6 204.4 178 203.2 178.4 198.8C178.8 195.6 178.8 193.6 178.8 192.8V132C178.8 126.8 179.6 122 180.8 118C182.4 113.2 184 110.4 186 108C187.2 106.4 188.4 104.8 190.4 102C185.2 96.8 173.2 86.4 170 83.6C166.4 87.6 156.4 99.6 155.2 100.8C154 102.4 152 103.6 150 104C148 104 145.6 103.2 144.4 101.6C136 92.4 128 86.8 120 84.4C114.8 82.8 108.4 82 100.8 82C90 82 80.8 85.2 74 92C67.2 98.4 63.6 108 63.6 120.8C63.6 130.8 66 139.6 70.8 146.4C75.6 153.2 82.4 158.4 91.2 162C100 165.6 110.8 168.4 122.8 170C126.8 171.2 132.4 171.6 140 172zM218.4 39.6C218 39.2 216.8 39.2 215.6 38.4C214 38 213.2 37.6 212.4 37.2C185.2 27.2 158.4 21.6 130.4 21.6C88.8 21.6 50.8 31.6 15.2 52C13.6 52.8 12.4 52.8 11.6 51.6C11.2 51.2 11.2 50.8 11.2 50.4C11.2 50 11.6 48.8 12.4 48.4C28 34.8 45.6 24 65.2 16C84.8 8.4 105.6 4.4 128 4.4C142.4 4.4 156.8 6.4 172 10.4C186.8 14.4 200.4 20 212.8 27.2C216.8 29.6 220 32 222.4 33.6C224.4 35.2 224.8 36.4 223.6 38.4C222.4 40 220.4 40.4 218.4 39.6zM243.6 54C242.4 55.6 238.8 56.8 232.4 57.2C231.2 57.6 229.6 57.6 228.4 57.6C223.6 57.6 218.4 56.8 212.8 55.2C209.6 54.4 206 52.8 202.8 50.4C202.4 50 202 49.2 201.6 48.8C201.6 48.4 201.2 48.4 201.2 48.4C201.2 48 201.2 48 201.6 47.6S202.4 47.2 203.2 47.2C206 47.6 209.2 48 212.8 48.4C216 48.8 218.8 48.8 221.2 48.8C227.6 48.8 231.6 47.9999999999999 233.2 45.9999999999999C233.6 45.5999999999999 234.0000000000001 44.4 234.0000000000001 42.4C234.0000000000001 37.5999999999999 231.2 29.2 226.0000000000001 16.8C225.6 15.6 225.6 14.8 226.4000000000001 14.4C226.8000000000001 14.4 226.8000000000001 13.9999999999999 227.2000000000001 13.9999999999999S228.4000000000001 14.4 229.2000000000001 14.8C234.0000000000001 18.8 237.6000000000001 24.4 240.4000000000001 31.2C243.2000000000001 38 244.4000000000001 43.6 244.4000000000001 48.8V50.4C244.4000000000001 51.9999999999999 244.0000000000001 53.2 243.6 53.9999999999999z" />
    <glyph glyph-name="ambulance"
      unicode="&#xEA0C;"
      horiz-adv-x="256" d="M232 218H102.4C92 218 83.6 209.2 83.6 198.4V185.2H64.8V195.6C64.8 199.6 61.6 202.8 57.6 202.8S50.4 199.6 50.4 195.6V185.2H35.2C30 185.2 25.6 182 24 177.2L5.6 126L4 122.4L7.2 118V74C7.2 67.2 12.8 61.2 20 61.2H24C27.2 47.6 39.2 37.6 53.6 37.6S80 47.6 83.2 61.2H173.6C176.8 47.6 188.8 37.6 203.2 37.6C217.6 37.6 229.6 47.6 232.8 61.2H241.6C247.2 61.2 251.6 65.6 251.6 71.2V198C251.2 208.8 242.4000000000001 218 232.0000000000001 218zM36.8 171.2H84V130.4H22L36.8 171.2zM53.6 52C44.4 52 37.2 59.6 37.2 68.8C37.2 78 44.4 85.6 53.6 85.6S70 78 70 68.8C70 59.6 62.4 52 53.6 52zM53.6 99.6C39.2 99.6 26.8 89.2 24 75.6H21.2V116.4H84V75.6H83.2C80 89.2 68 99.6 53.6 99.6zM202.8 52C193.6 52 186.4 59.6 186.4 68.8C186.4 78 193.6 85.6 202.8 85.6S219.2 78 219.2 68.8C219.2 59.6 212 52 202.8 52zM237.2 75.6H232.8C229.6 89.2 217.6 99.6 203.2 99.6C188.8 99.6 176.4 89.2 173.6 75.6H98V198.4C98 201.6 100 204 102.8 204H232C234.8 204 236.8 201.2 236.8 198V75.6zM189.2 152H174.4V166.8C174.4 170.8 171.2 174 167.2 174S160 170.8 160 166.8V152H145.2C141.2 152 138 148.8 138 144.8S141.2 137.6 145.2 137.6H160V122.8C160 118.8 163.2 115.6 167.2 115.6S174.4 118.8 174.4 122.8V137.6H189.2C193.2 137.6 196.4 140.8 196.4 144.8S193.2 152 189.2 152z" />
    <glyph glyph-name="amex"
      unicode="&#xEA0D;"
      horiz-adv-x="256" d="M230.8 199.6H25.2C12 199.6 1.2 188.8 1.2 175.6V80.8C1.2 67.6 12 56.8 25.2 56.8H231.2C244.4 56.8 255.2 67.6 255.2 80.8V175.6C255.2 188.8 244 199.6 230.8 199.6zM241.2 80.4C241.2 74.8 236.8 70.4 231.2 70.4H25.2C19.6 70.4 15.2 74.8 15.2 80.4V175.6C15.2 181.2 19.6 185.6 25.2 185.6H231.2C236.8 185.6 241.2 181.2 241.2 175.6V80.4zM107.6 113.6L95.6 154.8H80.8V105.2L68.4 154.8H51.6L38.8 102H47.2L50.4 113.2H70.4L73.2 102H90V144.8H91.2L103.6 104.4H112.4L124.4 144.8H125.6V102H134V154.8H119.6L107.6 113.6zM51.6 120.4L58 147.2H62L68.4 120.4H51.6zM208 154.8L196.4 134.4L185.2 154.8H141.6V102H185.6L196.4 122L207.6 102H217.2L202 128L217.2 154.8H208zM180 109.6H150V124.8H170V132H150.4V146.4H180L191.2 126.8L180 109.6z" />
    <glyph glyph-name="anchor"
      unicode="&#xEA0E;"
      horiz-adv-x="256" d="M217.2 70.8L198 86C194 89.2 188 89.2 183.6 86L164.8 71.2C161.6 68.8 161.2 64.4 163.6 61.2C166 58 170.4 57.6 173.6 60L183.6 68C182 42.8 160.8 22.4 134.4 19.2V154.8H159.6C163.6 154.8 166.8 158 166.8 162S163.6 169.2 159.6 169.2H134.4V188.4C148.4 191.6 159.2 204.4 159.2 219.2C159.2 236.8 144.8 250.8 127.6 250.8S96 236.4 96 219.2C96 204 106.4 191.6 120.8 188.4V169.2H95.6C91.6 169.2 88.4 166 88.4 162S91.6 154.8 95.6 154.8H120.8V19.2C94 22.4 73.2 42.8 71.6 68L82.4 59.2C83.6 58 85.2 57.6 86.8 57.6C88.8 57.6 90.8 58.4 92.4 60.4C94.8 63.6 94.4 68 91.2 70.4L72 85.6C68 88.8 62 88.8 57.6 85.6L38.8 70.8C35.6 68.4 35.2 64 37.6 60.8C40 57.6 44.4 57.2 47.6 59.6L57.2 67.2C59.2 32.4 90 4.4 127.6 4.4C165.2 4.4 196 32.4 198 67.2L208.4 58.8C209.6 57.6 211.2 57.2 212.8 57.2C214.8 57.2 216.8 58 218.4 60C220.8 64 220 68.4 217.2 70.8zM109.6 219.2C109.6 229.2 117.6 236.8 127.2 236.8C137.2 236.8 144.8 228.8 144.8 219.2C144.8 209.2 136.8 201.6 127.2 201.6C117.6 201.6 109.6 209.6 109.6 219.2z" />
    <glyph glyph-name="android-original"
      unicode="&#xEA0F;"
      horiz-adv-x="256" d="M59.2 70C59.2 60.8 66.4 53.2 76 53.2H86.8V19.2C86.8 10.8 93.6 4 102 4S117.2 10.8 117.2 19.2V53.2H137.6V19.2C137.6 10.8 144.4 4 152.8 4C161.2 4 168 10.8 168 19.2V53.2H178.8C188 53.2 195.6 60.4 195.6 70V168.4H59.2V70zM162 228.8L172.4 248C172.8 249.2 172.8 250.4 172 250.8C171.2 252 170.8 252 170.8 252C170.4 252 169.2 251.6 169.2 250.8L158.4 231.2C149.2 235.2 139.2 237.2 129.2 237.2C118.4 237.2 108.8 234.8 100 231.2L89.2 250.8C88.8 252 87.6 252.4 86.4 251.2C85.2 250.8 84.8 249.6 86 248.4L96.8 229.2C74.4 218 60.8 197.6 60.8 174H197.6C196.8 198 182 218 162 228.8zM96.4 198.8C93.6 198.8 90.8 201.6 90.8 204.4S93.6 210 96.4 210S102 207.2 102 204.4S100 198.8 96.4 198.8zM159.6 198.8C156.8 198.8 154 201.6 154 204.4S156.8000000000001 210 159.6 210S165.2 207.2 165.2 204.4S162.8 198.8 159.6 198.8zM38.4 171.2C30 171.2 23.2 164.4 23.2 156V92.4C23.2 84 30 77.2 38.4 77.2S53.6 84 53.6 92.4V156C54 164.8 46.8 171.2 38.4 171.2zM217.6 171.2C209.2 171.2 202.4 164.4 202.4 156V92.4C202.4 84 209.2 77.2 217.6 77.2C226 77.2 232.8 84 232.8 92.4V156C232.8 164.8 226 171.2 217.6 171.2z" />
    <glyph glyph-name="android"
      unicode="&#xEA10;"
      horiz-adv-x="256" d="M99.6 205.6A6.8 6.8 0 0 1 113.2 205.6A6.8 6.8 0 0 1 99.6 205.6M140.8 205.6A6.8 6.8 0 0 1 154.4 205.6A6.8 6.8 0 0 1 140.8 205.6M218.4 183.6C215.2 183.6 212 182.8 208.8 181.6L208 184C202.8 200 193.2 213.6 180.8 223.2L200 242.8C202.8 245.6 202.8 250 200 252.8S192.8 255.6 190 252.8L170 232.4C169.6 232 169.6 231.6 169.2 231.6C157.2 238.4 143.2 242 128.4 242C114 242 100.4 238.4 88.4 232C88 232 88 232.4 87.6 232.4L67.6 252.8C64.8 255.6 60.4 255.6 57.6 252.8S54.8 245.6 57.6 242.8L76.4 224C63.6 214 54 200.4 48.8 184.4L48.4 183.2C45.2 184.8 41.6 185.6 37.6 185.6C24 185.6 12.8 174.4 12.8 160.8V115.2C12.8 101.6 24 90.4 37.6 90.4C41.6 90.4 45.2 91.2 48.4 92.8V63.6C48.4 58.8 52 54.8 57.2 54.8H64.4V25.6C64.4 12 75.6 0.8 89.2 0.8C102.8 0.8 114 12 114 25.6V54.8H138.8V25.6C138.8 12 150 0.8 163.6 0.8S188.4 12 188.4 25.6V54.8H198.4C203.2000000000001 54.8 207.2000000000001 58.4 207.2000000000001 63.6V91.2C210.4 89.6 214.0000000000001 88.8 218.0000000000001 88.8C231.6000000000001 88.8 242.8000000000001 100 242.8000000000001 113.6V158.8C243.2000000000001 172.4 232.0000000000001 183.6 218.4000000000001 183.6zM128.4 228C155.2 228 179.6 212.8 191.2 189.2H66C77.2 212.8 101.2 228 128.4 228zM37.6 104C31.6 104 26.8 108.8 26.8 114.8V160.4C26.8 166.4 31.6 171.2 37.6 171.2S48.4 166.4 48.4 160.4V114.8C48.4 109.2 43.6 104 37.6 104zM100.4 26C100.4 20 95.6 15.2 89.6 15.2S78.8 20 78.8 26V55.2H100.4V26zM174.8 26C174.8 20 170 15.2 164 15.2S153.2 20 153.2 26V55.2H174.8V26zM193.6 68.8H62.4V174.8H193.2V68.8zM229.2 113.2C229.2 107.2 224.4 102.4 218.4 102.4S207.6 107.2 207.6 113.2V158.8C207.6 164.8 212.4 169.6 218.4 169.6S229.2 164.8 229.2 158.8V113.2z" />
    <glyph glyph-name="angellist"
      unicode="&#xEA11;"
      horiz-adv-x="256" d="M187.6 148.4C193.2 164 209.6 209.6 209.6 224C209.6 236.8 201.6 247.6 188 247.6C166.4 247.6 146.8 184.4 141.2 168.8C136 182.8 114.8 252 95.2 252C80 252 73.2 240.8 73.2 226.8C73.2 210 89.6 165.2 95.6 148.4C92.8 149.6 89.2 150 86 150C74.8 150 62.8 136 62.8 124.8C62.8 120.4 65.2 114 66.8 110.8C48.8 105.6 42 94.4 42 76C42 41.2 74.8 4.4 121.6 4.4C178.4 4.4 214 47.2 214 102.4C213.2 123.6 210.4 142 187.6 148.4zM170.4 199.6C172 205.2 180.4 230.8 188.4 230.8C192.8 230.8 194 226.4 194 222.8C194 213.6 174.8 163.2 171.6 151.2L155.2 154L170.4 199.6zM88.4 228.8C88.4 234.4 95.2 250.8 110.8 206.4L127.2 158C119.2 158.4 113.6 159.6 110.4 157.6C105.2 170.8 88.4 214.8 88.4 228.8zM87.2 134.4C101.2 134.4 120 88.8 120 82.4C120 80 117.6 76.8 114.8 76.8C104.8 76.8 77.6 114 77.6 124C77.6 127.6 83.2 134.4 87.2 134.4zM176 44C162 28.8 144 20.4 123.2 20.4C94.4 20.4 72 36 61.2 62.8C53.2 83.6 62.8 95.6 71.2 95.6C76.8 95.6 97.6 66.8 97.6 60.8C97.6 58.4 93.6 56.8 92 56.8C84 56.8 81.2 64 67.2 81.6C53.2 67.6 77.2 39.2 95.2 39.2C108 39.2 116 51.2 113.6 59.6C115.2 59.6 117.6 59.6 119.2 60C119.6 47.2 123.6 31.2 139.6 30C139.6 30.4 140.8 33.2 140.8 33.2C140.8 41.6 135.6 48.8 135.6 57.6C135.6 71.2 146.4 84.8 157.2 92.4C161.2 95.2000000000001 165.6 96.8 170 98.4C174.4 100 179.6 102.4 182.8 105.6C182.4 111.2 180 115.6 174.8 115.6C160.8 116 115.6 114.4 115.6 135.2C115.6 138 115.6 141.6 124 141.6C139.2 141.6 179.2 137.6 191.2 127.6C200 120.8 202.8 74 176 44zM128.8 105.6C133.2 104 138.4 104 142.8 102.8C139.6 100 136 97.2 133.2 93.6C131.6 97.2 130 100.8 128.8 105.6z" />
    <glyph glyph-name="angle-double-down"
      unicode="&#xEA12;"
      horiz-adv-x="256" d="M238.8 148.8L133.6 49.2C130.8 46.4 126 46.4 123.2 49.2L16.8 148.8C14 151.6 9.6 151.2 6.8 148.4S4.4 141.2 7.2 138.4L113.6 38.8C117.6 34.8 123.2 33.2 128.4 33.2C133.6 33.2 139.2 35.2 143.2 39.2L248.4000000000001 138.8C251.2000000000001 141.6 251.2000000000001 146 248.8000000000001 148.8C246.0000000000001 151.2 241.6000000000001 151.6 238.8000000000001 148.8zM114 111.2C118 107.2 123.6 105.6 128.8 105.6C134 105.6 139.6 107.6 143.6 111.6L248.8 211.2C251.6 214 251.6 218.4 249.2 221.2C246.4 224 242.0000000000001 224 239.2 221.6L134 121.2C131.2 118.4 126.4 118.4 123.6 121.2L17.2 220.8C14.4 223.6 10 223.6 7.2 220.8S4.8 213.6 7.6 210.8L114 111.2z" />
    <glyph glyph-name="angle-double-left"
      unicode="&#xEA13;"
      horiz-adv-x="256" d="M49.2 122.4C46.4 125.2 46.4 130 49.2 132.8L148.8 239.2C151.6 242 151.2 246.4 148.4 249.2S141.2 251.6 138.4 248.8L38.8 142.4C31.2 134.4 31.2 120.8 38.8 112.8L138.4 7.6C139.6 6 141.6 5.6 143.6 5.6C145.2 5.6 147.2 6.4 148.4 7.6C151.2 10.4 151.2 14.8 148.8 17.6L49.2 122.4zM220.8 16.8L121.2 122C118.4 124.8 118.4 129.6 121.2 132.4L220.8 238.8C223.6 241.6 223.2 246 220.4 248.8S213.2 251.2 210.4 248.4L111.2 142C103.6 134 103.6 120.4 111.2 112.4L210.8 7.2C212 5.6 214 5.2 216 5.2C217.6 5.2 219.6 6 220.8 7.2C223.6 9.6 223.6 14 220.8 16.8z" />
    <glyph glyph-name="angle-double-right"
      unicode="&#xEA14;"
      horiz-adv-x="256" d="M144.8 143.6L45.2 248.8C42.4 251.6 38 251.6 35.2 249.2C32.4 246.4 32.4 242 35.2 239.2L134.8 134C137.6 131.2 137.6 126.4 134.8 123.6L35.2 17.2C32.4 14.4 32.8 10 35.6 7.2C36.8 6 38.8 5.2 40.4 5.2C42.4 5.2 44 6 45.6 7.6L145.2 114C152.8 122 152.8 135.2 144.8 143.6zM217.2 143.2L117.2 248.4C114.4 251.2 110 251.2 107.2 248.8C104.4 246 104.4 241.6 106.8 238.8L206.4 133.6C209.2 130.8 209.2 126 206.4 123.2L107.2 16.8C104.4 14 104.8 9.6 107.6 6.8C108.8 5.6 110.8 4.8 112.4 4.8C114.4 4.8 116 5.6 117.6 7.2L217.2 113.6C224.8 121.6 224.8 134.8 217.2 143.2z" />
    <glyph glyph-name="angle-double-up"
      unicode="&#xEA15;"
      horiz-adv-x="256" d="M17.2 107.2L122.4 206.8C125.2 209.6 130 209.6 132.8 206.8L239.2 107.2C240.4 106 242.4 105.2 244.0000000000001 105.2C246.0000000000001 105.2 247.6 106 249.2 107.6C252.0000000000001 110.4 251.6 114.8 248.8 117.6L142.4 217.2C134.4 224.8 120.8 224.8 112.8 217.2L7.6 117.2C4.8 114.4 4.8 110 7.2 107.2C10 104.8 14.4 104.4 17.2 107.2zM142 144.8C134 152.4 120.4 152.4 112.4 144.8L7.2 45.2C4.4 42.4 4.4 38 6.8 35.2C9.6 32.4 14 32.4 16.8 34.8L122 134.4C124.8 137.2 129.6 137.2 132.4 134.4L238.8 34.8C240 33.6 242 32.8 243.6 32.8C245.6 32.8 247.2 33.6 248.8 35.2C251.6 38 251.2 42.4 248.4 45.2L142 144.8z" />
    <glyph glyph-name="angular"
      unicode="&#xEA16;"
      horiz-adv-x="256" d="M107.2 121.2H149.6L128 172L107.2 121.2zM128 252L13.2 210.8L31.2 58L128 4L225.6 58L243.2 210.8L128 252zM200 63.2H172.8L158.8 99.2H97.6L82.8 63.2H56L128 224.4L200 63.2z" />
    <glyph glyph-name="apartment"
      unicode="&#xEA17;"
      horiz-adv-x="256" d="M232 250.8H129.6C119.2 250.8 110.8 242.4 110.8 231.6V208.4H24C13.6 208.4 4.8 200 4.8 189.2V24C4.8 13.6 13.2 4.8 24 4.8H232C242.4 4.8 251.2 13.2 251.2 24V232C251.2 242.4 242.4 250.8 232 250.8zM110.4 18.8H24C21.2 18.8 18.8 21.2 18.8 24V190C18.8 192.8 21.2 195.2 24 195.2H110.4V18.8zM237.2 24C237.2 21.2 234.8 18.8 232 18.8H124.4V232C124.4 234.8 126.8 237.2 129.2 237.2H232C234.8 237.2 237.2 234.8 237.2 232V24zM36.8 134.4H54C55.2 134.4 56 135.2 56 136.4V153.6C56 154.8 55.2 155.6 54 155.6H36.8C35.6 155.6 34.8 154.8 34.8 153.6V136.4C34.8 135.2 35.6 134.4 36.8 134.4zM77.2 134.4H94.4C95.6 134.4 96.4 135.2 96.4 136.4V153.6C96.4 154.8 95.6 155.6 94.4 155.6H77.2C76 155.6 75.2 154.8 75.2 153.6V136.4C75.2 135.2 76 134.4 77.2 134.4zM36.8 76.4H54C55.2 76.4 56 77.2 56 78.4V95.6C56 96.8 55.2 97.6 54 97.6H36.8C35.6 97.6 34.8 96.8 34.8 95.6V78.4C34.8 77.6 35.6 76.4 36.8 76.4zM77.2 76.4H94.4C95.6 76.4 96.4 77.2 96.4 78.4V95.6C96.4 96.8 95.6 97.6 94.4 97.6H77.2C76 97.6 75.2 96.8 75.2 95.6V78.4C75.2 77.6 76 76.4 77.2 76.4zM168 207.6H150.8C149.6 207.6 148.8 206.8 148.8 205.6V188.4C148.8 187.2 149.6 186.4 150.8 186.4H168C169.2 186.4 170 187.2 170 188.4V205.6C170 206.4 169.2 207.6 168 207.6zM210.4 207.6H193.2C192 207.6 191.2 206.8 191.2 205.6V188.4C191.2 187.2 192 186.4 193.2 186.4H210.4C211.6 186.4 212.4 187.2 212.4 188.4V205.6C212.4 206.4 211.6 207.6 210.4 207.6zM168 150.4H150.8C149.6 150.4 148.8 149.6 148.8 148.4V131.2C148.8 130 149.6 129.2 150.8 129.2H168C169.2 129.2 170 130 170 131.2V148.4C170 149.6 169.2 150.4 168 150.4zM210.4 150.4H193.2C192 150.4 191.2 149.6 191.2 148.4V131.2C191.2 130 192 129.2 193.2 129.2H210.4C211.6 129.2 212.4 130 212.4 131.2V148.4C212.4 149.6 211.6 150.4 210.4 150.4zM168 93.2H150.8C149.6 93.2 148.8 92.4 148.8 91.2V74C148.8 72.8 149.6 72 150.8 72H168C169.2 72 170 72.8 170 74V91.2C170 92.4 169.2 93.2 168 93.2zM210.4 93.2H193.2C192 93.2 191.2 92.4 191.2 91.2V74C191.2 72.8 192 72 193.2 72H210.4C211.6 72 212.4 72.8 212.4 74V91.2C212.4 92.4 211.6 93.2 210.4 93.2z" />
    <glyph glyph-name="app-store"
      unicode="&#xEA18;"
      horiz-adv-x="256" d="M128 195.6L132.4 203.6C135.2 208.8 141.6 210.4 146.4 207.6C151.6 204.8 153.2 198.4 150.4 193.6L106.4 118H138C148 118 153.6 106 150 97.6H56.8C51.2 97.6 46.8 102 46.8 107.6S51.2 117.6 56.8 117.6H82.8L116 176L105.2 194C102.4 199.2 104 205.2 109.2 208C114.4 210.8 120.4 209.2 123.2 204L128 195.6zM88.4 86.4L78.8 69.6C76 64.4 69.6 62.8 64.8 65.6C59.6 68.4 58 74.8 60.8 79.6L68 92.4C76.8 95.2 83.6 93.2 88.4 86.4zM173.2 117.2H199.6C205.2 117.2 209.6 112.8 209.6 107.2S205.2 97.2 199.6 97.2H184.8L194.8 79.6C197.6 74.4 196 68.4 190.8 65.6S179.6 64.4 176.8 69.6C160 98.8 147.6 120 139.2 134.8C130.8 149.6 136.8 164 142.4 169.2C149.6 158 159.6 140.4 173.2 117.2zM128 252C59.2 252 4 196.8 4 128S59.2 4 128 4S252 59.2 252 128S196.8 252 128 252zM236.4 128C236.4 68.8 188.4 19.6 128 19.6C68.8 19.6 19.6 67.6 19.6 128C19.6 187.2 67.6 236.4 128 236.4C187.2 236.4 236.4 188.4 236.4 128z" />
    <glyph glyph-name="apple-music"
      unicode="&#xEA1A;"
      horiz-adv-x="256" d="M42.8 126.4C42.8 131.2 44.8 135.2 49.2 137.6C46.8 141.2 43.6 142.8 38.8 143.2C37.2 143.2 35.2 143.2 32.4 142C30 140.8 28.4 140.4 27.6 140.4C27.2 140.4 25.6 140.8 23.6 142C21.6 143.6 20 144 18.4 144C16 144 13.6 143.6 11.6 142S8 138.8 6.4 136.8C5.2 134.4 4 130.4 4 126.4C4 122.8 4.4 119.2 5.6 115.6C6.8 112 8 109.2 9.6 106.8C11.2 104.8 12.8 102.8 13.6 101.6C15.2 100 16.8 99.2 18.8 99.2C20 99.2 21.2 99.6 22.8 100.4C24.4 100.8 26.4 101.6 28 101.6S31.2 101.2 32.8 100.4C34.8 99.2 36.4 99.2 37.6 99.2C39.2 99.2 41.2 100.4 42.8 101.2C43.2 101.6 44 102.4 44.4 103.2C44.8 104.4 46 105.2 46.4 106.4C46.8 107.6 47.6 108 48 108.8C48.4 110 49.2 110.8 49.6 112C49.6 112.4 50 113.2 50 113.6C50 114 50.4 114.8 50.4 115.2C48.8 115.6 48 116.8 46.8 117.6C44 119.2 42.8 122.4 42.8 126.4zM84.4 115.6L72.4 142.4H63.2V99.6H70.8V127.6H71.2L81.2 105.2H86.8L96.8 127.6H97.2V99.6H105.6V142.4H96L84.4 115.6zM35.6 148C37.6 150.4 38.8 153.2 38.8 156.4V157.2C37.2 157.2 35.6 156.8 34 155.6C32.4 154.4 30.8 153.6 30 152.4C28 150 26.8 147.2 26.8 144.8V144C30 143.6 32.8 145.2 35.6 148zM199.2 142.4H208V99.6H199.2V142.4zM235.6 135.6C240.8 135.6 244 131.6 244 127.2H252V128C252 136.4 245.6 143.6 234.8 143.6C223.6 143.6 216.8 136.4 216.8 123.6V118.8C216.8 106.4 223.6 99.2 234.8 99.2C245.6 99.2 252 106.4 252 114.4V115.6H243.2C243.2 110.8 240.8 107.2 234.8 107.2S226 111.2 226 119.6V124C226 131.6 229.6 135.6 235.6 135.6zM139.6 115.2C139.6 109.6 136 106.4 131.2 106.4C126 106.4 122.8 109.6 122.8 115.2V142.8H114V114.4C114 105.2 120.8 98.8 131.2 98.8C142 98.8 148.4 105.2 148.4 114.4V142.8H139.6V115.2zM178.4 124.4L172 126C168.4 127.2 166.4 128.4 166.4 131.2C166.4 134.4 168.8 136.4 173.6 136.4S180.8 134 181.2 130.8H189.6C189.6 138.4 183.2 143.6 173.6 143.6C164.8 143.6 157.6 138.8 157.6 130.8C157.6 123.6 162.8 120 168.4 118.8L174.8 117.2C178.8 116 181.2 114.8 181.2 112C181.2 108.8 178.8 106.4 173.6 106.4C168.4 106.4 165.2 108.8 165.2 112.8000000000001H156.4C156.4 106.4 160.4 99.2000000000001 172.8 99.2000000000001C183.2 99.2000000000001 190 104.4 190 112.8000000000001C190 120.4 184.8 122.8000000000001 178.4 124.4z" />
    <glyph glyph-name="apple-pay"
      unicode="&#xEA19;"
      horiz-adv-x="256" d="M48.8 166C46 162.8 41.6 159.6 36.8 160.4C36.4 164.8 38.4 170 41.2 173.2C44 176.4 49.2 179.6 53.2 179.6C53.6 173.6 51.6 169.2 48.8 166M53.2 158.4C46.4 158.8 40.8 154.4 38 154.4C34.8 154.4 29.6 158.4 24.4 158.4C17.6 158.4 11.6 154.4 7.6 148.4C0 136 5.6 117.2 12.4 107.2C16 102 20 96.4 25.6 96.4C30.8 96.4 32.4 99.6 38.4 99.6S46.4 96.4 52 96.8C57.6 96.8 61.2 101.9999999999999 64.4 106.8C68.4 112.4 70 118 70 118.8C70 118.8 59.2 123.2 59.2 135.6C59.2 146.4 67.6 150.8 68.4 150.8C63.2 158 56 158.4 53.2 158.4M92 173.1999999999999V97.6H104V123.6H120.4C135.2 123.6 146 133.6 146 148.4S136 173.2 121.2 173.2H92zM104 163.1999999999999H117.6C127.6 163.1999999999999 133.6 157.6 133.6 148S128 132.8 117.6 132.8H104V163.1999999999999zM166.8 96.4C174 96.4 180.8 100.4 184.4 105.9999999999999H184.8V96.8H195.6V134.8C195.6 145.6 187.2 152.8 173.6 152.8C161.2 152.8 152 146 151.6 136H161.6C162 140.4 166.8 144 172.8 144C179.6 144 184 140.8 184 134.8V130.4L169.2 130C155.6 129.5999999999999 148.4 123.5999999999999 148.4 114C148 103.1999999999999 156 96.4 166.8 96.4zM170 105.5999999999999C163.6 105.5999999999999 160 108.4 160 113.5999999999999C160 118 164 120.7999999999999 171.2 121.5999999999999L184 122V117.5999999999999C184.4 110.4 178 105.5999999999999 170 105.5999999999999zM209.6 76.7999999999999C220.8 76.7999999999999 226.4 81.1999999999999 231.2 94.3999999999999L252 151.6H240L226 106.8H225.6L211.6 151.6H199.2L218.8 96.4L217.6 93.6C216 88 213.2 85.6 208 85.6H204.8V76.4C206.4 76.8 209.2 76.8 209.6 76.8z" />
    <glyph glyph-name="apple"
      unicode="&#xEA1B;"
      horiz-adv-x="256" d="M219.2 64.8C213.2 68 207.6 73.2 203.2 80C196.8 89.6 193.6 100 193.6 111.2C193.6 121.6 196.4 130.8 202.4 140C204.8 143.6 208.8 147.6 212.8 151.6C214 152.8 214.8 154.8 214.8 156.4S214 160 212.8 161.6C209.6 164.8 206.4 167.6 203.6 169.6C195.2 175.6 185.6 178.4 174.4 178.4C167.6 178.4 159.6 176.8 150.4 173.6C141.2000000000001 170.4 134.8000000000001 168.8 130.4 168.8C128.8000000000001 168.8 124.8000000000001 168.8 111.2 172.8C101.2 175.6 93.2 176.8 86.8 176.8C71.2000000000001 176.8 58.4 170 48 157.2C38.4 144 33.2 126.8 33.2 105.6C33.2 84 40 60.8 53.6 36.4C67.2000000000001 12.8 81.2000000000001 1.2 94.8 1.2C100 1.2 106 2.8 112.8000000000001 6C120.0000000000001 9.2 126.8000000000001 10.4 132.4 10.4C138.4 10.4 145.6 8.8 153.6 6C162 3.2 168.4 1.6 172.8 1.6C184.4 1.6 196 10.8 208 28.4C214 37.2 219.2 46.8 222.4 56.4C223.6 59.6 222.4 63.2 219.2 64.8zM196.4 36C187.6 22.8 179.2 15.2 172.8 15.2C172 15.2 168.4 15.2 158.4 18.8C149.2 22.4 140.4 24 132.4 24S116.4 22 107.2 18.4C102 16 97.6 14.8 94.4 14.8C90.8 14.8 80.4 17.6 65.2 43.2C52.8 65.2 46.8 86 46.8 105.6C46.8 123.6 51.2 138 59.2 148.4C66.8 158 75.6 162.8 86.8 162.8C92 162.8 98.8 161.6 107.2 159.2C120.8 155.2 126.4 154.4 130.4 154.4C136.4 154.4 144 156 154.8 160C162.4 162.8 168.8 164 174 164C182 164 189.2 162 195.2 157.6C196 157.2 196.4 156.8 197.2 156C194.4 153.2 192 150.4 190 147.6C182.4 136.4 178.4 124 178.4 110.8C178.4 96.8 182.4 83.6 190.4 71.6C194.8 64.8 200.4 59.6 206 55.6C204.4 48.8 200.8 42.4 196.4 36zM131.6 192C132.4 192 133.6 192 134.4 192.4C143.6 194 156.4 197.6 165.2 205.2L165.6 205.6C174.4 214.4 178 228 179.6 238.4C180.4 243.2 178.8 247.6 175.2 251.2C172 254.4 167.2 256 162.4 255.2C152.4 253.6 138.8 250 129.6 241.6C124.4 236 120 225.6 117.2 210C116.4 205.2 117.6 200 121.2 196.8C124 193.6 127.6 192 131.6 192zM130.8 207.2C134.4 225.2 138.4 230.4 139.2 231.2C144 235.6 153.2 239.2 164.4 240.8C164.4 240.8 164.8 240.8 164.8 240.4C165.2 240 165.2 240 165.2 239.6C164 228.8 160.4 220.4 156 215.6C151.2 211.6 142.4 208 132 206C131.6 206 131.2 206 131.2 206.4C130.8 206.8 130.8 207.2 130.8 207.2z" />
    <glyph glyph-name="archive"
      unicode="&#xEA1C;"
      horiz-adv-x="256" d="M230.4 240.4H25.6C14 240.4 4.8 231.2 4.8 219.6V194.4C4.8 182.8 14 173.6 25.6 173.6H26V36.4C26 24.8 35.2 15.6 46.8 15.6H209.2C220.8 15.6 230 24.8 230 36.4V173.6H230.4C242 173.6 251.2 182.8 251.2 194.4V219.6C251.2 231.2 241.6 240.4 230.4 240.4zM216 36.4C216 32.8 212.8 29.6 209.2 29.6H46.8C43.2 29.6 40 32.8 40 36.4V173.6H216V36.4zM237.2 194.4C237.2 190.8 234 187.6 230.4 187.6H25.6C22 187.6 18.8 190.8 18.8 194.4V219.6C18.8 223.2 22 226.4 25.6 226.4H230C233.6 226.4 236.8 223.2 236.8 219.6V194.4zM94 78.8H162.4C170.8 78.8 177.6 85.6 177.6 94V120C177.6 128.4 170.8 135.2 162.4 135.2H94C85.6 135.2 78.8 128.4 78.8 120V94C78.8 85.6 85.6 78.8 94 78.8zM92.8 120C92.8 120.4 93.2 121.2 94 121.2H162.4C162.8 121.2 163.6 120.8 163.6 120V94C163.6 93.6 163.2 92.8 162.4 92.8H94C93.6 92.8 92.8 93.2 92.8 94V120z" />
    <glyph glyph-name="arrow-down-circle"
      unicode="&#xEA1E;"
      horiz-adv-x="256" d="M128 4.8C60.4 4.8 5.2 60 5.2 128S60.4 250.8 128 250.8S250.8 196 250.8 128S195.6 4.8 128 4.8zM128 236.8C68 236.8 19.2 188 19.2 128S68 18.8 128 18.8S236.8 68 236.8 128S188 236.8 128 236.8zM128 54.8C122.8 54.8 118 56.8 114 60.4L91.6 82.4C88.8 85.2 88.8 89.6 91.6 92.4S98.8 95.2 101.6 92.4L121.2 73.2V191.2C121.2 195.2 124.4 198.4 128.4 198.4S135.6 195.2 135.6 191.2V73.2L155.2 92.4C158 95.2 162.4 95.2 165.2 92.4S168 85.2 165.2 82.4L142.8 60.4C138 56.8 132.8 54.8 128 54.8z" />
    <glyph glyph-name="arrow-down"
      unicode="&#xEA1D;"
      horiz-adv-x="256" d="M175.6 47.6C173.2 50.4 168.8 50.8 165.6 48.4L134.8 22.4V244C134.8 248 131.6 251.2 127.6 251.2S120.4 248 120.4 244V22.4L89.6 48.4C86.8 50.8 82.4 50.4 79.6 47.6C77.2 44.8 77.6 40.4 80.4 37.6L113.2 10C117.2 6.4 122.4 4.8 127.2 4.8S137.2 6.4 141.2 10L174 37.6C177.6 40 178 44.4 175.6 47.6z" />
    <glyph glyph-name="arrow-left-circle"
      unicode="&#xEA1F;"
      horiz-adv-x="256" d="M128 5.2C60 5.2 5.2 60.4 5.2 128S60 250.8 128 250.8S251.2 195.6 251.2 128S196 5.2 128 5.2zM128 236.8C68 236.8 19.2 188 19.2 128S68 19.2 128 19.2S237.2 68 237.2 128S188 236.8 128 236.8zM87.6 89.6C85.6 89.6 84 90.4 82.8 91.6L60.8 114C53.2 121.6 53.2 134 60.8 141.6L82.8 164C85.6 166.8 90 166.8 92.8 164S95.6 156.8 92.8 154L73.6 134.4H191.6C195.6 134.4 198.8 131.2 198.8 127.2S195.6 120 191.6 120H73.6L92.8 100.4C95.6 97.6 95.6 93.2000000000001 92.8 90.4C91.2 90.4 89.2 89.6 87.6 89.6z" />
    <glyph glyph-name="arrow-left"
      unicode="&#xEA20;"
      horiz-adv-x="256" d="M42.8 78.8C40.8 78.8 38.8 79.6 37.6 81.2L10 114C3.2 122 3.2 134 10 142L37.6 174.8C40 177.6 44.4 178 47.6 175.6C50.4 173.2 50.8 168.8 48.4 165.6L22.4 134.8H244C248 134.8 251.2 131.6 251.2 127.6S248 120.4 244 120.4H22.4L48.4 89.6C50.8 86.8 50.4 82.4 47.6 79.6C46 79.2 44.4 78.8 42.8 78.8z" />
    <glyph glyph-name="arrow-right-circle"
      unicode="&#xEA21;"
      horiz-adv-x="256" d="M173.6 164.4C170.8 167.2 166.4 167.2 163.6 164.4S160.8 157.2 163.6 154.4L182.8 134.8H64.8C60.8 134.8 57.6 131.6 57.6 127.6S60.8 120.4 64.8 120.4H182.8L163.6 100.8C160.8 98 160.8 93.6000000000001 163.6 90.8C164.8 89.6000000000001 166.8 88.8 168.4 88.8C170.4 88.8 172 89.6000000000001 173.2000000000001 90.8L195.2000000000001 113.2000000000001C202.8000000000001 120.8000000000001 202.8000000000001 133.2000000000001 195.2000000000001 140.8000000000001L173.6000000000001 164.4zM128 250.8C60 250.8 4.8 196 4.8 128S60 4.8 128 4.8S251.2 60 251.2 128S196 250.8 128 250.8zM128 18.8C68 18.8 18.8 68 18.8 128S68 236.8 128 236.8S237.2 188 237.2 128S188 18.8 128 18.8z" />
    <glyph glyph-name="arrow-right"
      unicode="&#xEA22;"
      horiz-adv-x="256" d="M246 142L218.4 174.8C216 177.6 211.6 178 208.4 175.6C205.6 173.2 205.2 168.8 207.6 165.6L233.6 134.8H12C8 134.8 4.8 131.6 4.8 127.6S8 120.4 12 120.4H233.6L207.6 89.6C205.2 86.8 205.6 82.4 208.4 79.6C209.6 78.4 211.2 78 212.8 78C214.8 78 216.8 78.8 218 80.4L245.6 113.2C252.8 122 252.8 134 246 142z" />
    <glyph glyph-name="arrow-top-left"
      unicode="&#xEA23;"
      horiz-adv-x="256" d="M244 4.8C242.4 4.8 240.4 5.6 239.2 6.8L24.4 222C24 221.2 24 220.8 24 220L18.8 162.8C18.4 158.8 15.2 156 11.2 156.4C7.2 156.8 4.4 160 4.8 164L10 221.2C11.2 234.4 21.6 244.8 34.8 246L92 250.8C96 251.2 99.2 248.4 99.6 244.4C100 240.4 97.2 237.2 93.2 236.8L36 232C35.2 232 34.8 232 34 231.6L248.8 16.8C251.6 14 251.6 9.6 248.8 6.8C247.6 5.6 245.6 4.8 244 4.8z" />
    <glyph glyph-name="arrow-top-right"
      unicode="&#xEA24;"
      horiz-adv-x="256" d="M12 4.8C10.4 4.8 8.4 5.6 7.2 6.8C4.4 9.6 4.4 14 7.2 16.8L222 231.6C221.2 232 220.8 232 220 232L162.8 237.2C158.8 237.6 156 240.8 156.4 244.8C156.8 248.8 160 251.6 164 251.2L221.6 246.4C234.8 245.2 245.2 234.8 246.4 221.6L250.8 164C251.2 160 248.4 156.8 244.4 156.4C240.4 156 237.2 158.8 236.8 162.8L232 220C232 220.4 232 221.2 231.6 221.6L16.8 7.2C15.6 5.6 13.6 4.8 12 4.8z" />
    <glyph glyph-name="arrow-up-circle"
      unicode="&#xEA25;"
      horiz-adv-x="256" d="M142 195.6C134.4 203.2 122 203.2 114.4 195.6L92 173.6C89.2 170.8 89.2 166.4 92 163.6S99.2 160.8 102 163.6L121.6 182.8V64.8C121.6 60.8 124.8 57.6 128.8 57.6S136 60.8 136 64.8V182.8L155.6 163.6C156.8 162.4 158.8 161.6 160.4 161.6C162.4 161.6 164 162.4 165.2 163.6C168 166.4 168 170.8 165.2 173.6L142 195.6zM128 251.2C60 251.2 5.2 196 5.2 128S60 4.8 128 4.8S251.2 60 251.2 128S196 251.2 128 251.2zM128 18.8C68 18.8 19.2 68 19.2 128S68 237.2 128 237.2S237.2 188 237.2 128S188 18.8 128 18.8z" />
    <glyph glyph-name="arrow-up"
      unicode="&#xEA26;"
      horiz-adv-x="256" d="M174.8 218.4L142 246C134 252.8 122 252.8 114 246L81.2 218.4C78.4 216 78 211.6 80.4 208.4C82.8 205.6 87.2 205.2 90.4 207.6L121.2 233.6V12C121.2 8 124.4 4.8 128.4 4.8S135.6 8 135.6 12V233.6L166.4 207.6C167.6 206.4 169.2 206 170.8 206C172.8 206 174.8 206.8 176 208.4C178 211.6 177.6 216 174.8 218.4z" />
    <glyph glyph-name="arrows-horizontal"
      unicode="&#xEA27;"
      horiz-adv-x="256" d="M213.2 78.8C211.6 78.8 210 79.2 208.8 80.4C206 82.8 205.6 87.2 208 90.4L233.6 120.8H22.4L48 90.4C50.4 87.6 50 83.2 47.2 80.4C44.4 78 40 78.4 37.2 81.2L10 113.6C3.2 121.6 3.2 133.6 10 141.6L37.2 174C39.6 176.8 44 177.2000000000001 47.2 174.8C50 172.4 50.4 168 48 164.8L22.4 134.4H233.6L208 165.6C205.6 168.4 206 172.8 208.8 175.6C211.6 178 216 177.6 218.8 174.8L246 142.4C252.8 134.4 252.8 122.4 246 114.4L218.8 82C217.2 80 215.2 78.8 213.2 78.8z" />
    <glyph glyph-name="arrows-vertical"
      unicode="&#xEA28;"
      horiz-adv-x="256" d="M128 4.8C123.2 4.8 118 6.4 114 10L81.6 37.2C78.8 39.6 78.4 44 80.8 47.2S87.6 50.4 90.8 48L121.2 22.4V233.6L90.4 208C87.6 205.6 83.2 206 80.4 208.8C78 211.6 78.4 216 81.2 218.8L113.6 246C121.6 252.8 133.6 252.8 141.6 246L174 218.8C176.8 216.4 177.2 212 174.8 208.8C172.4 206 168 205.6 164.8 208L134.4 233.6V22.4L164.8 48C167.6 50.4 172 50 174.8 47.2S176.8 40 174 37.2L141.6 10C138 6.8 132.8 4.8 128 4.8z" />
    <glyph glyph-name="aws"
      unicode="&#xEA29;"
      horiz-adv-x="256" d="M74 148.4C74 139.6 78.4 135.6 78.4 133.2C78.4 132 78 131.6 76.8 130.8L71.6 127.6C71.2 127.2 70 127.2 69.2 127.2C69.2 127.2 66 126.8 61.2 137.2C55.6 130 46.4 125.2 37.2 126C31.2 125.6 14 129.2 14.8 148C14.4 162.8 27.6 172 42.4 171.2C45.2 171.2 50.8 171.2 60.4 168.8V174.8C61.6 184.8 54.8 192.8 42.8 191.6C42.4 191.6 35.6 191.6 24.8 187.6C22 186 22 186 20.8 186C18 186 19.2 194 19.6 195.6C21.2 198 33.6 202.4 44.8 202.4C52.8 202.8 60.4 200.8 66.8 195.6C72 190 74 182.8 73.6 175.2L74 148.4zM40 136C52.4 136 58 144 59.2 148C59.6 152 59.6 154 59.6 158.8C55.6 159.2 50 160.4 44 160.4C38.4 160.8 27.2 158 27.6 148C28.4 140.8 32.8 135.6 40 136zM106.4 127.2C103.2 126.8 102 128.8 101.2 131.2L82 194.8C81.6 196 81.6 197.2 81.6 198C81.6 199.2 82 199.6 83.2 199.6H91.6C94.8 200 96 197.2 96.8 195.6L110.8 141.2L124 195.6C124.4 196.8 125.2 200 129.2 199.6H136C136.4 199.6 140.4 199.6 141.2 195.6L154 140.4L168 195.6C168 196 169.2 200 173.2 199.6H181.2C181.6 199.6 183.6 200 182.8 196.4C182.8 196 184 200.8 162.4 130.8C162 128.4 160.8 126.4 157.2 126.8H150C145.6 126.4 144.8 130.8 144.8 131.2L130.8 184L118 131.2C118 130.8 117.6 126.8 112.8 126.8H106.8V127.2zM212 124.8C209.6 124.8 199.2 124.8 190 129.2C188.4 129.6 186.8 132 186.8 133.6V138C186.8 141.2 189.2 140.8 190 140.4C194 138.8 196 137.6 201.2 136.4C215.2 133.2 221.6 136.8 223.2 138C228.4 141.2 228.8 148 224.8 151.6C220.8 154.8 219.2 154.8 204.4 159.6C203.2 160.4 188 165.2 188 180C187.6 190.8 197.6 202 214.8 202C220 202 232.8 200.4 236.8 196C237.2 195.6 237.2 194.4 237.2 193.2V189.2C237.2 187.6 236.8 186.4 235.6 186.4C232.4 186.8 227.6 190.8 216.4 190.8C213.6 190.8 200.8 190.4 201.6 181.2C201.6 174 212.4 171.2 213.6 170.4C227.6 166 232.8 165.2 237.6 158.4C244.4 150 240.8 140 239.2 137.2C231.6 123.2 212.8 124.8 212 124.8zM228 84C201.2 64.4 161.6 53.6 128.4 53.6C82.8 52.8 38.8 69.6 5.2 100C2.4 102.4 4.8 105.6 8 103.2C45.2 82.4 87.2 71.2 130.4 71.2C162.4 71.2 194 78 223.6 90.4C228.4000000000001 92.4 232.4000000000001 87.6 228.0000000000001 84zM239.2 96.8C236 101.2 216 98.4 207.6 98C204.8 97.6 204.4 99.6 207.2 101.2C222.8 112 248.4 109.2 251.2 105.6C254.4 102.4 250.8 76.4 235.6 64C233.2 62.4 231.2 63.6 232.4 65.6C235.2 74.4 242.4 92.4 239.2 96.8z" />
    <glyph glyph-name="azure"
      unicode="&#xEA2A;"
      horiz-adv-x="256" d="M139.2 226.8L66 163.6L4 51.2H60.4L139.2 226.8zM149.6 211.6L118.4 123.6L177.6 48.8L61.6 29.2H252L149.6 211.6z" />
    <glyph glyph-name="backward"
      unicode="&#xEA2B;"
      horiz-adv-x="256" d="M224.4 241.2C216.4 245.6 206.4 245.2 198.8 240L32.4 131.6V244C32.4 248 29.2 251.2 25.2 251.2S18.4 248 18.4 244V12C18.4 8 21.6 4.8 25.6 4.8S32.4 8 32.4 12V124.4L198.8 16C202.8 13.2 207.6 12 212.4 12C216.4 12 220.8 13.2 224.4 15.2C232.4 19.6 237.6 28 237.6 37.2V219.2C237.6 228.4 232.8 236.8 224.4 241.2zM223.6 36.8C223.6 32.8 221.6 29.2 218 27.2C214.4 25.2 210 25.2 206.4 27.6L52.8 128L206.4 228.4C210 230.8 214 230.8 218 228.8C221.6 226.8 223.6 223.2 223.6 219.2V36.8z" />
    <glyph glyph-name="baloon"
      unicode="&#xEA2C;"
      horiz-adv-x="256" d="M165.6 250.8C146 250.8 128.8 238.4 119.2 219.2C111.6 223.2 103.6 225.6 94.8 225.6C62.8 225.6 36.8 194.4 36.8 156.4C36.8 120.8 59.2 81.6 90 78C88.4 72.8 86.4 67.2 85.6 64C82.8 54.8 85.6 45.6 87.6 37.6C90.4 27.6 92 21.6 88 15.6C86 12.4 86.8 8 90 6C91.2 5.2 92.4 4.8 94 4.8C96.4 4.8 98.4 6 100 8C107.6 19.6 104.4 31.2 101.2 41.6C99.2 48.4 97.6 54.8 99.2 60.4C100.4 64 103.6 74 105.2 79.2C122.4 84 136.4 100 144.8 119.2C148 117.2 151.6 115.6 155.2 114.4H155.6C155.2 113.6 154.8 112.4 154.4 111.2C152.4 105.6 150 99.2 149.2 96C146.4 86.8 149.2 77.6 151.2 69.6C154 59.6 155.6 53.6 151.6 47.6C149.6 44.4 150.4 40 153.6 38C154.8 37.2 156 36.8 157.6 36.8C160 36.8 162 38 163.6 40C171.2 51.6 168 63.2 164.8 73.6C162.8 80.4 161.2 86.8 162.8 92.4C163.6 95.2000000000001 166 101.6 168 106.8C169.2 109.6000000000001 170 112 170.4 113.6000000000001C172.4 114.0000000000001 174.8 114.4000000000001 176.8 114.8000000000001C200.4 122 220 154.4 220 187.2C219.2 222 195.2 250.8 165.6 250.8zM94.4 91.6C72.4 91.6 50.4 123.6 50.4 156.4C50.4 186.8 70 211.6 94.4 211.6S138.4 186.8 138.4 156.4C138.4 124 116.8 91.6 94.4 91.6zM172 127.6C167.6 126.4 163.2 126.4 158.8 127.6C155.6 128.8 152.4 130.4 149.2 132.8C151.2 140.4 152.4 148.4 152.4 156.4C152.4 178.4 144 198 130.4 210.4C137.2 226.4 150.8 236.8 165.2 236.8C187.2 236.8 205.2 214.4 205.2 186.4C205.2 160.8 189.6 133.2 172 127.6z" />
    <glyph glyph-name="ban"
      unicode="&#xEA2D;"
      horiz-adv-x="256" d="M128 250.8C60 250.8 5.2 196 5.2 128S60 4.8 128 4.8S251.2 60 251.2 128S196 250.8 128 250.8zM19.2 128C19.2 188 68 236.8 128 236.8C151.2 236.8 172.8 229.6 190.4 217.2L54.4 47.6C32.8 67.6 19.2 96.4 19.2 128zM128 18.8C104.8 18.8 83.2 26 65.2 38.8L201.2 208.8C223.2 188.8 236.8 160 236.8 128C237.2 68 188 18.8 128 18.8z" />
    <glyph glyph-name="bar-chart"
      unicode="&#xEA2E;"
      horiz-adv-x="256" d="M244 29.6H219.2V113.6C219.2 125.6 209.6 135.2 197.6 135.2H173.6C161.6 135.2 152 125.6 152 113.6V29.6H122.4V176C122.4 188 112.8 197.6 100.8 197.6H76.8C64.8 197.6 55.2 188 55.2 176V29.6H26.4C22.4 29.6 18.8 32.8 18.8 37.2V233.6C18.8 237.6 15.6 240.8 11.6 240.8S5.2 237.2 5.2 233.6V37.2C5.2 25.2 14.8 15.6 26.8 15.6H244C248 15.6 251.2 18.8 251.2 22.8S248 29.6 244 29.6zM70.4 29.6V176C70.4 180 73.6 183.6 78 183.6H102C106 183.6 109.6 180.4 109.6 176V29.6H70.4zM166.8 29.6V113.6C166.8 117.6 170 121.2 174.4 121.2H198.4C202.4 121.2 206 118 206 113.6V29.6H166.8z" />
    <glyph glyph-name="basketball"
      unicode="&#xEA2F;"
      horiz-adv-x="256" d="M228 199.2C212.8 220.8 190.4 237.2 165.2 245.2C148.4 250.4 131.2 252 112.8 250.4C91.6 247.6 72.8 240 56.4 228.4C39.6 216 26.4 200.4 17.2 182C9.2 165.6 5.2 148 4.8 131.2C4.4 104.4 12.4 78.4 28 56.4S65.6 18.4 90.8 10.4C102.8 6.8 115.6 4.8 128 4.8C133.2 4.8 138 5.2 143.2 5.6C164.4 8.4 183.6 16 199.6 27.6C216.8 40 229.6 55.6 238.8 74C246.8 90.4 250.8 108 251.2 124.8C251.6 151.6 243.6 177.2 228.0000000000001 199.2zM236.8 125.2C236.8 119.2 236 113.2 234.8 106.8C211.2 104.4 188.4 96.4 168 83.6L137.6 126L220.4 184.8C231.6 166.8 237.6 146.4 236.8 125.2zM212.4 196.4L130 137.6L99.6 180C118.4 194.8 133.6 214 143.6 236C149.2 235.2 155.2 234 160.8 232C181.2 225.6 199.2 213.2 212.4 196.4zM114.4 236.4C118.8 236.8 122.8 237.2 127.2 237.2H129.2C120 219.6 107.2 204 92 191.6L70.8 221.2C83.6 228.8 98.4 234 114.4 236.4zM59.2 212.8L80.4 183.2C63.6 172.4 44.4 165.2 24.8 162.8C26 167.2 28 171.6 30 176C36.8 190.4 46.8 202.4 59.2 212.8zM19.2 130.8C19.2 136.4 20 142 20.8 148C44.8 150.4 68 158.4 88.4 171.6L118.4 129.2L35.6 70.4C24.4 88.4 18.4 109.2 19.2 130.8zM44 58.8L126.8 118L157.2 75.6C138.4 60.8 123.2 42 113.2 20.4C107.2 21.2 101.2 22.4 95.2 24.4C74.8 30.4 57.2 42.4 44 58.8zM141.2 20C136.8 19.6 132.4 19.2 127.6 19.2C136.8 36.4 149.2 52 164.8 64L185.2 35.2C172.4 27.2 157.6 22 141.2 20zM196.8 43.6L176.4 72C192.8 82.4 211.6 89.6 230.8 92.4C229.2 88.4 227.6 84 226 80C219.2 66 209.2 53.6 196.8 43.6z" />
    <glyph glyph-name="behance-original"
      unicode="&#xEA30;"
      horiz-adv-x="256" d="M104.4 136.8C111.2 139.6 116.4 144 119.6 149.2C122.8 154.4 124.8 161.2 124.8 168.4C124.8 175.2 123.6 181.2 121.6 186.4C119.2 191.6 116 195.6 111.6 198.4C107.2 201.2 102.4 203.6 96.4 204.8C90 206 83.6 206.4 76.8 206.4H4V54.4H78C84.8 54.4 91.6 54.8 97.6 57.2C104.4 58.8 110 61.6 115.2 65.2C120.4 68.4 124.4 73.2 127.2 79.2C130 84.8 131.6 91.6 131.6 99.6C131.6 109.2 129.2 117.6 124.8 124C120 129.6 113.2 134 104.4 136.8zM38 180H69.6C72.4 180 75.2 179.6 78 179.6S83.6 178 85.2 176.8C87.6 175.6 89.2 174 90.4 171.2C91.6 168.8 92 166 92 162C92 156 90.4 150.8 86.4 148C82.4 145.6 77.2 144 71.6 144H38V180zM96.4 90C95.2 87.2 93.6 85.6 90.8 84C88.4 82.4 85.6 81.2 82.8 81.2C80 80.8 76.8 80.8 73.6 80.8H37.6V122H74.4C81.6 122 87.2 120.4 92 116.8C96.4 113.6 98.8 107.6 98.8 100C98 96 98 92.8 96.4 90zM249.6 126C248 134 244.4 140.8 240 146.8C235.6 152.8 230 157.6 223.2 161.6C216.4 164.8 208 167.2 198.8 167.2C190.4 167.2 182.4 165.6 176.4 162.8C169.6 160 163.6 156 158.4 150.4C153.2 145.2 149.2 139.2 146.4 132C143.6 125.2 142 117.2 142 108.8C142 100.4 143.2 92.4 146 85.2C148.8 78 152.8 72.4 157.2 66.8C162.4 61.6 168 57.6 175.2 54.8C182 52 190 50.4 198.8 50.4C211.2 50.4 222 53.2 230.8 58.8C240 64.4 246 74 250.4 87.6H224C222.8 84.4 220 80.8 216 78S206.4 73.6 200.4 73.6C192 73.6 185.2 76 180.8 80.4C176.4 84.8 173.6 93.2 173.6 102H252C252 110.4 251.6 118.8 249.6 126zM172 120.8C172 123.6 173.2 126.4 174 128.8C175.2 131.6 176.4 134.4 178.4 136.4C180.8 138.8 184 141.2 187.2 142.8C190.4 144.4 194.4 144.4 198 144.4C205.2 144.4 211.6 142 214.8000000000001 138.4C218 134.4 220.8000000000001 128.8 221.6000000000001 120.8H172zM165.6 196H227.6V180.8H165.6z" />
    <glyph glyph-name="behance"
      unicode="&#xEA31;"
      horiz-adv-x="256" d="M92.8 128.8C103.2 135.2 111.2 145.2 113.6 156.4C116.8 170 113.6 184.4 104.8 195.2C96 206 83.2 212.4 69.2 212.4H23.6C11.2 212.4 0.8 202.4 0.8 189.6V66.8C0.8 54.4 10.8 44 23.6 44H67.2C91.2 44 111.2 61.2 114 84C115.6 96.8 111.6 110 102.8 119.6C100 123.2 96.4 126.4 92.8 128.8zM15.2 189.6C15.2 194.4 19.2 198.4 24 198.4H69.2C78.8 198.4 88 194 94 186.4S102.4 169.2 100 159.6C97.2 146.8 82 135.2 67.6 135.2H15.2V189.6zM100.4 86C98.4 70.4 84 58.4 67.6 58.4H23.6C18.8 58.4 14.8 62.4 14.8 67.2V121.2H68.8C78 121.2 86.4 117.2 92.4 110.8C98.8 104 101.6 95.2 100.4 86zM158.4 194.8H242.8C246.8 194.8 250 198 250 202S246.8 209.2 242.8 209.2H158.4C154.4 209.2 151.2 206 151.2 202S154.4 194.8 158.4 194.8zM197.6 158.8C166 158.8 140 132.8 140 101.2S166 43.6 197.6 43.6C211.6 43.6 225.2 48.8 235.6 58C238.4 60.4 238.8 64.8 236.4 68C234 70.8 229.6 71.2 226.4 68.8C218.4 62 208.4 58 197.6 58C176 58 158 74 154.8 94.4H248C252 94.4 255.2 97.6 255.2 101.6C255.2 133.2 229.2 158.8 197.6 158.8zM197.6 144.8C219.2 144.8 237.2 128.8 240.4 108.4H154.4C157.6 128.8 175.6 144.8 197.6 144.8z" />
    <glyph glyph-name="bi-cycle"
      unicode="&#xEA32;"
      horiz-adv-x="256" d="M49.2 108.4C24.8 108.4 5.2 88.4 5.2 64.4S25.2 20.4 49.2 20.4S93.2 40.4 93.2 64.4S73.6 108.4 49.2 108.4zM49.2 34.4C32.4 34.4 19.2 48 19.2 64.4S32.8 94.4 49.2 94.4S79.2 80.8 79.2 64.4S65.6 34.4 49.2 34.4zM207.2 108.4C182.8 108.4 163.2 88.8 163.2 64.4S182.8 20.4 207.2 20.4S251.2 40 251.2 64.4S231.2 108.4 207.2 108.4zM207.2 34.4C190.8 34.4 177.2 48 177.2 64.4S190.8 94.4 207.2 94.4S237.2 80.8 237.2 64.4S223.6 34.4 207.2 34.4zM188.8 135.6C191.2 132.4 195.6 132 198.8 134.4C202 136.8 202.4 141.2 200 144.4L164.8 189.2L164 189.6C160.8 192.8 156 193.6 151.6 191.6L103.6 163.6C100.8 162 98.8 159.2 98.4 156C98 153.2 99.2 150 101.2 148L117.2 129.6C120 126.4 121.2 122.8 121.2 118.8V91.2C121.2 87.2 124.4 84 128.4 84S135.6 87.2 135.6 91.2V118.8C135.6 126 132.8 133.2 128 138.8L115.2 154L156 177.6L188.8 135.6zM196.8 189.6C209.6 189.6 220 200 220 212.8S209.6 236 196.8 236C184 236 173.6 225.6 173.6 212.8S184 189.6 196.8 189.6zM196.8 221.6C201.6 221.6 206 217.6 206 212.4C206 207.6 202 203.2 196.8 203.2C192 203.2 187.6 207.2 187.6 212.4C187.6 217.6 191.6 221.6 196.8 221.6z" />
    <glyph glyph-name="bitbucket"
      unicode="&#xEA33;"
      horiz-adv-x="256" d="M84.4 207.6C84.4 194.4 106.4 188.4 128 188.4S171.6 194.4 171.6 207.6S149.6 226.8 128 226.8S84.4 220.8 84.4 207.6zM128 202.4C113.6 202.4 103.6 205.2 99.6 207.6C103.6 210 113.2 212.8 128 212.8C142.4 212.8 152.4 210 156.4 207.6C152.4 205.2 142.4 202.4 128 202.4zM128 166.4C114.4 166.4 103.2 155.2 103.2 141.6S114.4 116.8 128 116.8C141.6 116.8 152.8 128 152.8 141.6S141.6 166.4 128 166.4zM128 130.8C122 130.8 117.2 135.6 117.2 141.6C117.2 147.6 122 152.4 128 152.4C134 152.4 138.8 147.6 138.8 141.6C138.8 135.6 134 130.8 128 130.8zM209.2 241.2C188.4 250.4 152.8 254.8 128 254.8C103.2 254.8 67.6 250 46.8 240.8C43.2 239.2 40.8 235.2 41.2 231.2L52 120C52.4 116.8 54.4 114 56.8 112.8C64 109.2 100 92 128 92C157.6 92 184.8 100 200.8 113.6C202.8 115.2 203.6 117.2 204 119.6L214.8 231.2C215.2 235.6 213.2 239.6 209.2 241.2zM190.4 123.2C176.8 112.4 153.2 106 128 106C105.6 106 74.8 119.6 65.6 124.4L55.6 229.6C72.8 236 103.2 240.8 128 240.8C152.8 240.8 183.2 236 200.4 229.2L190.4 123.2zM195.6 90.8C192.8 92.8 189.6 93.2 186.4 91.6L185.6 91.2C174.4 86.4 150.8 76 128 76.4C102.8 76.8 79.2 87.2 69.2 91.6C66.4 92.8 62.8 92.4 60 90.8C57.2 88.8 56 85.6 56.4 82.4L63.2 22C63.6 18.4 65.6 15.2 68.8 13.6C84.8 5.6 106 1.2 127.6 1.2S170.4 5.6 186.4 13.6C189.6 15.2 191.6 18.4 192 21.6L198.8 82C200 85.6 198.4 88.8 195.6 90.8zM178.8 25.2C164.8 18.4 146.8 14.8 128 14.8C109.2 14.8 91.2 18.4 77.2 25.2L71.2 75.6C84 70.4 104.8 62.8 127.6 62.4C149.6 62 170.8 69.6 184.4 75.6L178.8 25.2z" />
    <glyph glyph-name="bitcoin"
      unicode="&#xEA34;"
      horiz-adv-x="256" d="M190.8 128.4C208.4 137.6 220.4 155.6 221.2 175.6V179.6C220 211.6 192.4 237.6 158.8 237.6H141.2V248C141.2 252 138 255.2 134 255.2S126.8 252 126.8 248V238H104.8V248C104.8 252 101.6 255.2 97.6 255.2S91.6 252 91.6 248V238H41.6C37.6 238 34.4 234.8 34.4 230.8S37.6 224 41.6 224H52V33.6H41.6C37.6 33.6 34.4 30.4 34.4 26.4S37.6 19.2 41.6 19.2H92V8C92 4 95.2 0.8 99.2 0.8S106.4 4 106.4 8V19.2H128.4V8C128.4 4 131.6 0.8 135.6 0.8S142.8 4 142.8 8V19.2H160C193.2 19.2 221.2 45.2 222.4 77.2V81.6C220.4 101.6 208.4 119.2 190.8 128.4zM66 224H159.2C185.2 224 206.8 204 207.6 179.6V176.4C206.8 154 187.2 135.6 163.2 135.6H66V224zM207.2 77.6C206.4 53.2 184.8 33.2 158.8 33.2H66V121.2H163.2C186.8 121.2 206.4 103.2 207.2 81.2V77.6z" />
    <glyph glyph-name="blackboard"
      unicode="&#xEA35;"
      horiz-adv-x="256" d="M224.4 219.2H135.2V233.6C135.2 237.6 132 240.8 128 240.8S120.8 237.6 120.8 233.6V219.6H31.6C16.8 219.6 4.8 207.6 4.8 192.8V116C4.8 101.2 16.8 89.2 31.6 89.2H67.6L32 26C30 22.8 31.2 18.4 34.8 16.4C36 16 36.8 15.6 38 15.6C40.4 15.6 42.8 16.8 44 19.2L83.2 89.6H120.8V22.8C120.8 18.8 124 15.6 128 15.6S135.2 18.8 135.2 22.8V89.2H173.2L212.8 18.8C214 16.4 216.4 15.2 218.8 15.2C220 15.2 221.2 15.6 222.4 16C225.6 18 226.8 22 225.2 25.6L189.6 88.8H224.8C239.6 88.8 251.6 100.8 251.6 115.6V192.8C251.2 207.6 239.2 219.2 224.4 219.2zM237.2 116C237.2 109.2 231.6 103.2 224.4 103.2H31.6C24.8 103.2 18.8 108.8 18.8 116V192.8C18.8 199.6 24.4 205.6 31.6 205.6H224.4C231.2 205.6 237.2 200 237.2 192.8V116z" />
    <glyph glyph-name="blogger"
      unicode="&#xEA36;"
      horiz-adv-x="256" d="M251.6 146C250.4 150.4 247.6 154.4 244.8 156C243.6 156.4 237.6 157.2 230.8 157.6C219.6 158 218.4 158 215.2 160.4C209.2 164 208 167.2 208 176.8C208 194.8 200 212.4 185.6 227.6C174.8 238.4 163.2 245.6 148.8 250C145.6 251.2 138 251.2 114 251.6C75.6 252 67.2 251.2 53.6 246C29.6 236.8 12 216.4 6 191.2C4.8 186 4 178 4 133.2C3.6 76.8 4 68.8 8 57.6C10.8 48 13.6 42.8 20 34.4C32 19.2 48.8 8 65.6 5.2C74 4.0000000000001 174.8 3.6000000000001 185.6 4.8C203.6 7.2 217.6 14.4 231.2 28C240.8 37.6 246.8 48.4 250.4 62.4C252 67.6 252 70.4 252 104.8C252 130.4 252 142.8000000000001 251.6 146.0000000000001zM72.8 180.8C77.2 185.2 78.4 185.2 105.6 185.2C130 185.2 130.8 185.2 134.4 183.6C139.6 180.8 141.6 177.6 141.6 171.6C141.6 166 140 162.4 134.8 159.6C132.4 158 130.8 158 106.8 158C92 158 80.4 158.4 78.8 158.4C69.6 161.2 66 174 72.8 180.8zM179.2 70.4L171.2 69.2L128 68.4C90.4 68 79.6 68.8 77.2 69.6C73.2 71.2 69.2 76.4 69.2 80.4C68.8 84.4 70.8 90 73.6 92.8C77.6 96 79.2 96 127.6 96.8C177.2 96.8 176.8 96.8 181.6 92.4C188.4 85.6 187.2 75.2 179.2 70.4z" />
    <glyph glyph-name="bluetooth-original"
      unicode="&#xEA37;"
      horiz-adv-x="256" d="M145.6 126.4L190.8 176.4L120 252V152.4L78 194L62.8 178.4L115.2 126L62.8 73.2L78 58L120 100L121.2 4L193.2 76L145.6 126.4zM165.6 176L141.2 151.6V200L165.6 176zM140.8 100.4L165.2 76L140.8 52V100.4z" />
    <glyph glyph-name="bluetooth"
      unicode="&#xEA38;"
      horiz-adv-x="256" d="M196.4 84.4L131.6 128L196.8 171.6A21.676 21.676 0 0 1 196.8 207.6L134.8 248.8C130.8 251.6 125.2 252 120.8 249.6C116.4 247.2 113.2 242.4 113.2 237.2V140.8L60.8 176C57.6 178 53.2 177.2 51.2 174S50 166.4 53.2 164.4L107.2 128.4L53.6 92.8C50.4 90.8 49.6 86.4 51.6 83.2C52.8 81.2 55.2 80 57.6 80C58.8 80 60.4 80.4 61.6 81.2L114 116V19.6C114 14.4 116.8 9.6 121.6 7.2C123.6 6 126 5.6 128 5.6C130.8 5.6 133.2 6.4 135.6 8L197.2 49.2C203.2 53.2 206.8 60 206.8 67.2S202.4 80.4 196.4 84.4zM127.6 236.8L188.8 196C190.8 194.4 192.4 192.4 192.4 189.6S191.2 184.8 188.8 183.2L127.6 142V236.8zM188.8 60L127.6 19.2V114L188.8 73.2C190.8 71.6 192.4 69.6 192.4 66.8S190.8 61.6 188.8 60z" />
    <glyph glyph-name="bold"
      unicode="&#xEA39;"
      horiz-adv-x="256" d="M171.2 138.8C190.8 146 202.4 164 202.4 188C202.4 206.4 196.8 222.4 182.8 233.2C170.4 246.4 153.2 252 132.8 252H45.6C39.6 252 35.2 247.6 35.2 241.6V14.8C35.2 8.8 39.6 4.4 45.6 4.4H145.6C167.2 4.4 185.6 11.6 199.6 26C213.6 40 221.2 57.2 221.2 78.8C220.8 108.8 202.4 132.8 171.2 138.8zM89.2 204.4H124.4C140.4 204.4 151.6 193.2 151.6 179.2S140 153.2 124.4 153.2H89.2V204.4zM135.6 52.4H89.2V110.4H136C154.4 110.4 168.4 99.2 168.4 82S154.4 52.4 135.6 52.4z" />
    <glyph glyph-name="bolt-alt"
      unicode="&#xEA3B;"
      horiz-adv-x="256" d="M94 4.8C90 4.8 86 6.8 83.2 10C78 16 79.6 23.6 80.4 27.2L103.2 124.4H57.6C54.8 124.4 49.6 124.4 45.6 127.6C38.4 133.2 40.4 143.6 41.2 146.8L58.8 231.6C59.6 235.6 61.2 242.4 66.4 246.8C71.6 250.8 78 250.8 82.4 250.8H139.2C144 250.8 153.6 250.8 159.2 243.6S162.8 227.2 162 222.4L156 196L195.2 195.6C206 195.6 212.4 192 214.8 185.2C217.2 178 213.2 171.6 210.8 168.4L109.6 15.6C107.6 12.8 104.8 8.4 100.4 6.4C98.8 5.6 96.8 5.2 95.2 5.2C94.8 5.2 94.4 4.8 94 4.8zM94.4 12zM82.4 236.8C80 236.8 76.8 236.8 75.2 235.6C73.6 234.4 72.8 230.8 72.4 228.4L55.2 144C54.4 139.6 54.8 138.4 54.8 138.4H112.4C114.4 138.4 116.4 137.6 118 135.6C119.2 134 120 131.6 119.2 129.6L94 24C93.2 20.4 93.2 19.6 93.6 19.2L94 18.8C95.2 19.6 96.8 21.6 98 23.2L199.2 176.4C201.2 179.2 201.6 180.4 201.6 180.8C201.2 180.8 200 181.6 195.2 181.6L147.6 182C145.6 182 143.6 182.8 142 184.8C140.8 186.4 140 188.8 140.8 190.8L148.4 226C148.8 228.4 150 233.6 148.4 235.2C146.8 237.2 141.6 237.2 139.2 237.2L82.4 236.8z" />
    <glyph glyph-name="bolt"
      unicode="&#xEA3A;"
      horiz-adv-x="256" d="M101.2 4.8C100 4.8 99.2 5.2 98.4 5.6C95.6 6.8 94 10 94.4 13.2L110.8 100H30C27.2 100 24.8 101.6 23.6 104C22.4 106.4 22.8 109.2 24.4 111.2L126.8 248C128.8 250.4 131.6 251.6 134.8 250.4C137.6 249.6 139.6 246.8 139.6 243.6V169.6H226.4000000000001C229.2000000000001 169.6 231.6 168 232.8000000000001 165.6C234.0000000000001 163.2 233.6000000000001 160.4 232.0000000000001 158L106.8 7.6C105.2 6 103.2 4.8 101.2 4.8zM44 114H119.2C121.2 114 123.2 113.2 124.4 111.6C125.6 110 126.4 108 126 106L113.2 37.6L211.2 156H132.4C128.4 156 125.2 159.2 125.2 163.2V223.2L44 114z" />
    <glyph glyph-name="book"
      unicode="&#xEA3C;"
      horiz-adv-x="256" d="M159.6 50.8H96.4C92.4 50.8 89.2 47.6 89.2 43.6S92.4 36.4 96.4 36.4H159.6C163.6 36.4 166.8 39.6 166.8 43.6S163.6 50.8 159.6 50.8zM95.2 120.8H161.2C169.6 120.8 176.4 127.6 176.4 136V160.8C176.4 169.2 169.6 176 161.2 176H95.2C86.8 176 80 169.2 80 160.8V136C80 127.6 86.8 120.8 95.2 120.8zM94 160.8C94 161.2 94.4 162 95.2 162H161.2C161.6 162 162.4 161.6 162.4 160.8V136C162.4 135.6 162 134.8 161.2 134.8H95.2C94.8 134.8 94 135.2 94 136V160.8zM65.6 236.8H212.4C216.4 236.8 219.6 240 219.6 244S216.4 251.2 212.4 251.2H65.6C50.4 251.2 38 239.6 36.8 224.4V28C36.8 15.2 48 4.8 61.6 4.8H198C208.4 4.8 216.8 13.2 216.8 23.6V190C216.8 200.4 208.4 208.8 198 208.8H64.8C56.4 208.8 51.2 214 51.2 222C50.8 230.4 57.2 236.8 65.6 236.8zM64.4 194.8S64.8 194.8 64.4 194.8H197.6C200.4 194.8 202.4 192.8 202.4 190V23.6C202.4 20.8 200.4 18.8 197.6 18.8H61.2C55.6 18.8 50.4 22.8 50.4 28V198C54.4 196 59.2 194.8 64.4 194.8z" />
    <glyph glyph-name="bookmark-alt"
      unicode="&#xEA3E;"
      horiz-adv-x="256" d="M229.2 166.8H114V198C114 210 104.4 219.6 92.4 219.6H58.4C46.4 219.6 36.8 210 36.8 198V166.8H26.8C14.8 166.8 5.2 157.2 5.2 145.2V58.4C5.2 46.4 14.8 36.8 26.8 36.8H229.6C241.6 36.8 251.2 46.4 251.2 58.4V145.2C251.2 156.8 241.2 166.8 229.2 166.8zM50.8 197.6C50.8 201.6 54.4 205.2 58.4 205.2H92.4C96.4 205.2 100 201.6 100 197.6V132L84.8 144.4L84 144.8C78.8 148.4 72 148.4 66.8 144.8L50.8 132V197.6zM237.2 58.4C237.2 54.4 233.6 50.8 229.6 50.8H26.8C22.8 50.8 19.2 54.4 19.2 58.4V145.2C19.2 149.2 22.8 152.8 26.8 152.8H36.8V128.8C36.8 124 39.6 120 43.6 117.6C45.2 116.8 47.2 116.4 48.8 116.4C51.6 116.4 54 117.2 56.4 119.2L74.8 134H75.6L94 119.6C97.6 116.8 102.8 116 106.8 118C111.2 120 113.6 124.4 113.6 129.2000000000001V153.2000000000001H229.2C233.2 153.2000000000001 236.8 149.6 236.8 145.6V58.4z" />
    <glyph glyph-name="bookmark"
      unicode="&#xEA3D;"
      horiz-adv-x="256" d="M64.8 4.8C62.4 4.8 60 5.2 57.6 6.4C51.2 9.2 47.2 15.6 47.2 22.4V226.4C47.2 239.6 58 250.8 71.6 250.8H184.8C198 250.8 209.2 240 209.2 226.4V22.8C209.2 16 205.2 9.6 198.8 6.8C192.4 4 185.2 5.2 180 9.6L134.4 49.6C130.8 52 126 52 122.4 49.6L76.4 9.6C73.2 6.4 68.8 4.8 64.8 4.8zM71.6 236.8C66 236.8 61.2 232.4 61.2 226.4V22.4C61.2 20.4 62.8 19.6 63.2 19.2C64 18.8 65.6 18.4 67.2 19.6L113.6 60.4C122.4 67.2000000000001 134.4 67.2000000000001 143.2 60.4L144 60L188.8 20.4C190.4 19.2 192 19.6 192.8 20C193.6 20.4 194.8 21.2 194.8 23.2V226.8C194.8 232.4 190.4 237.2 184.4 237.2H71.6z" />
    <glyph glyph-name="bootstrap"
      unicode="&#xEA3F;"
      horiz-adv-x="256" d="M165.6 97.2C165.6 73.6 143.6 74 141.6 74H96.4V119.2H141.2C165.2 120 165.6 102 165.6 97.2zM138 138C138.4 138 159.2 137.6 159.2 158.4C159.2 166.8 157.6 178 138 178H96.4V138H138zM251.6 210.4V45.2C251.6 22.8 233.2 4 210 4H46C22.8 4 4.4 22.4 4.4 45.6V210.4C4.4 233.6 22.8 252 46 252H211.2C233.2 252 251.6 233.6 251.6 210.4zM190.8 94.4C190.8 106.4 187.6 126.4 164 131.6V132C176.8 137.6 184.4 147.6 184.4 162.4C184.4 166.4 185.6 198.4 141.6 198.4H71.6V54.4C142.4 54.4 149.2 54 162 57.2C169.6 59.6 190.8 66.8 190.8 94.4z" />
    <glyph glyph-name="bricks"
      unicode="&#xEA40;"
      horiz-adv-x="256" d="M232 134H215.6V163.2C215.6 175.2 205.6 185.2 193.6 185.2H62.4C50.4 185.2 40.4 175.2 40.4 163.2V134H24C14 134 6 126 6 116V88.8C6 78.8 14 70.8 24 70.8H232C242 70.8 250 78.8 250 88.8V116C250 126 242 134 232 134zM203.6 163.2V134H134V173.2H193.6C199.2 173.2 203.6 168.4 203.6 163.2zM164 122V82.8H92V122H164zM52.4 163.2C52.4 168.8 56.8 173.2 62.4 173.2H122V134H52.4V163.2zM18 88.8V116C18 119.2 20.8 122 24 122H80V82.8H24C20.8 82.8 18 85.6 18 88.8zM238 88.8C238 85.6 235.2 82.8 232 82.8H176V122H232C235.2 122 238 119.2 238 116V88.8z" />
    <glyph glyph-name="bridge"
      unicode="&#xEA41;"
      horiz-adv-x="256" d="M244 129.6H215.6C204.4 166.4 169.2 193.2 128 193.2S51.6 166.4 40.4 129.6H12C8 129.6 4.8 126.4 4.8 122.4S8 115.6 12 115.6H36.8V69.6C36.8 65.6 40 62.4 44 62.4S51.2 65.6 51.2 69.6V104.4C51.2 108 51.6 112 52 115.6H204.8C205.2 112 205.6 108.4 205.6 104.4V69.6C205.6 65.6 208.8 62.4 212.8 62.4S220 65.6 220 69.6V115.6H244C248 115.6 251.2 118.8 251.2 122.8S248 129.6 244 129.6zM121.2 129.6H93.2V170.8C101.6 175.2 111.2 178 121.2 178.8V129.6zM135.2 178.8C145.2 178 154.8 175.2 163.2 170.8V129.6H135.2V178.8zM78.8 162V129.6H55.2C60 142.4 68 153.6 78.8 162zM177.2 129.6V162C188 153.6 196 142.4 200.8 129.6H177.2z" />
    <glyph glyph-name="briefcase"
      unicode="&#xEA42;"
      horiz-adv-x="256" d="M226.8 186.8H176C172 204.4 154.4 218 133.6 218H121.6C100.4 218 82.8 204.4 79.2 186.8H28C15.2 186.8 4.8 176.4 4.8 163.6V60.8C4.8 48 15.2 37.6 28 37.6H226.8C239.6 37.6 250 48 250 60.8V164C250 176.4 239.6 186.8 226.8 186.8zM121.6 204H133.6C146.8 204 158 196.8 161.6 186.8H93.6C97.2 196.8 108.4 204 121.6 204zM28 172.8H226.8C231.6 172.8 236 168.8 236 163.6V132L135.6 113.6C134 113.2 132 113.2 130.4 113.6L19.2 134.4V164C19.2 168.8 23.2 172.8 28 172.8zM226.8 52H28C23.2 52 18.8 56 18.8 61.2V120L127.6 100C129.2 99.6 131.2 99.6 132.8 99.6S136.4 99.6 138 100L236 118V61.2C236 56 232 52 226.8 52z" />
    <glyph glyph-name="brush-alt"
      unicode="&#xEA43;"
      horiz-adv-x="256" d="M244 234.8C239.2 239.6 232.8 242.4 226.4 242.4C220 242.4 214 240 209.2 235.6L60.4 98C55.6 98 50.4 97.2 44.4 94.8C36 90.8 32 84 28 76.8C24 70.4 20 62.8 10 55.2C6.4 52.4 4.8 48.4 5.2 44S8 36 12 33.6C28 25.2 52.8 13.6 73.6 13.6C81.6 13.6 89.2 15.2 95.2 20C104.4 26.8 108.8 36 108.8 46.4V49.2L245.2 199.6C253.6 209.6 253.2 225.2 244 234.8zM86.4 31.2C76 23.6 50.8 28.8 20 45.2C30.8 54 36 62.8 40 69.6C43.6 76 46 79.6 50.4 81.6C61.2 86.4 70 81.6 71.2 81.2C82.4 73.2 94.4 58.8 94.8 46.4C94.4 40.4 91.6 35.2 86.4 31.2zM234 209.2L103.2 64.8C97.6 76 88 86 78.8 92.8H78.4L76.8 93.6L218.8 225.2C222.8 229.2 230 229.2 234 224.8C238 220.8 238 213.6 234 209.2z" />
    <glyph glyph-name="brush"
      unicode="&#xEA44;"
      horiz-adv-x="256" d="M242.8 180L180.4 242.4C169.6 253.2 151.6 253.2 140.8 242.4L80.4 182C70.8 172.4 65.6 159.6 65.6 146C65.6 134.8 69.2 124.4 76 115.6L13.2 53.2C8 48 4.8 41.2 4.8 33.6C4.8 26 7.6 18.8 13.2 13.2C18.8 8 26 5.2 33.2 5.2C40.4 5.2 47.6 8 52.8 13.2L115.6 76C124.8 68.8 135.6 65.2 146.8 65.2C159.6 65.2 172.8 70 182.8 80L243.2 140C248.4 145.2 251.6 152.4 251.6 160S248 174.4 242.8 180zM43.2 23.6C38 18.4 28.8 18.4 23.2 23.6C20.4 26.4 19.2 30 19.2 33.6C19.2 37.2 20.8 40.8 23.2 43.2L85.2 105.2L105.2 85.2L43.2 23.6zM172.8 90C158.4 75.6 135.2 75.6 120.8 90L90.4 120.4C83.6 127.2 79.6 136.4 79.6 146.4S83.6 165.6 90.4 172.4L102.4 184.4L184.8 102L172.8 90zM232.8 150L194.4 111.6L112 194L150.4 232.4C156 238 164.8 238 170.4 232.4L232.8 170C235.6 167.2 236.8 164 236.8 160S235.6 152.8 232.8 150zM110 153.2C104 153.2 99.2 148.4 99.2 142.4C99.2 136.4 104 131.6 110 131.6C116 131.6 120.8 136.4 120.8 142.4C120.8 148.4 116 153.2 110 153.2zM131.6 110A10.8 10.8 0 0 1 153.2 110A10.8 10.8 0 0 1 131.6 110" />
    <glyph glyph-name="btc"
      unicode="&#xEA45;"
      horiz-adv-x="256" d="M185.2 134.8C198.8 141.6 207.2 154 205.6 174.4C202.8 202 180.4 211.6 150 214V252H126.4V214.4C120 214.4 114 214.4 108 214V252H84V213.6C75.6 213.2 65.6 213.6 36.8 213.6V188.4C55.2 188.8 64.8 190 67.2 177.6V72C65.6 62.4 58 64 41.2 64L36.8 36H84V4H107.6V36.8H126V4H149.6V36.8C189.2 39.2 215.6 48.8 218.8 86C221.6 116 207.2 129.2 185.2 134.8zM107.6 187.2C120.4 187.2 162.4 191.6 162.4 163.6C162.4 137.2 120.8 140.4 107.6 140.4V187.2zM107.6 64.8V116C123.2 116 172 120.4 172 90C172.4 61.6 123.2 64.8 107.6 64.8z" />
    <glyph glyph-name="bubble"
      unicode="&#xEA46;"
      horiz-adv-x="256" d="M27.2 32C23.2 32 19.6 33.2 16 35.2C9.2 39.2 4.8 46.4 4.8 54.4V201.6C5.2 214 14.8 224 27.2 224H228.8C241.2 224 251.2 214 251.2 202V85.6C251.2 73.2 241.2 63.6 228.8 63.6H90C88.4 63.6 87.2 63.2 86 62.4L38.4 35.2C34.8 33.2 30.8 32 27.2 32zM27.2 210C22.8 210 18.8 206.4 18.8 202V54.4C18.8 50.4 21.6 48 22.8 47.2C25.2 45.6 28.4 45.6 31.2 47.2L78.8 74.4C82 76.4 86 77.2 90 77.2H228.8C233.2 77.2 237.2 80.8 237.2 85.2V201.6C237.2 206 233.6 209.6 228.8 209.6H27.2z" />
    <glyph glyph-name="bug"
      unicode="&#xEA47;"
      horiz-adv-x="256" d="M234.8 98.4H195.2C194.8 109.6 193.2 120.4 190 130L220.8000000000001 157.2C223.6000000000001 159.6 224 164 221.6000000000001 167.2C219.2000000000001 170 214.8000000000001 170.4 211.6000000000001 168L184.4000000000001 144C178.0000000000001 157.6 168.8000000000001 168.4 158.4000000000001 176C163.2000000000001 177.2 168.0000000000001 180 171.6000000000001 183.6C176.4000000000001 188.8 178.8000000000001 196 178.0000000000001 203.6C175.6000000000001 230.4 154.0000000000001 250.8 127.6000000000001 250.8S79.6000000000001 230.4 76.8000000000001 203.6C76.0000000000001 196.4 78.4000000000001 189.2 83.2000000000001 183.6C86.8000000000001 179.6 91.6000000000001 176.8 96.4000000000001 175.6C86.0000000000001 168.4 77.2000000000001 157.6 70.8000000000001 144.4L44.4 168C41.6 170.4 37.2 170.4 34.4 167.2C32 164.4 32 160 35.2 157.6L65.2 131.2C62 121.2 60 110 60 98.8H21.2C17.2 98.8 14 95.6 14 91.6S17.2 84.4 21.2 84.4H60C60.8 74.8 62.8 65.6 66 57.2000000000001L34.8 30.0000000000001C32 27.2 32 22.8000000000001 34.4 20.0000000000001C35.6 18.4000000000001 37.6 17.6000000000001 39.6 17.6000000000001C41.2 17.6000000000001 42.8 18.0000000000001 44.4 19.2L72 43.6000000000001C84.4 20.4000000000001 104.4 4.8000000000001 127.6 4.8000000000001C150.8 4.8000000000001 171.2 20.4000000000001 183.6 44.0000000000001L212 18.8000000000001C213.2 17.6000000000001 214.8 17.2000000000001 216.8 17.2000000000001S220.8 18.0000000000001 222 19.6000000000001C224.4 22.4000000000001 224.4 26.8000000000001 221.2 29.6000000000001L189.2 57.6000000000001C192 66.0000000000001 194 74.8000000000001 194.8 84.0000000000001H234.8C238.8 84.0000000000001 242 87.2000000000001 242 91.2000000000001S238.4 98.4000000000001 234.8 98.4000000000001zM90.8 202.4C92.8 222 108.8 237.2 128 237.2C146.8 237.2 162.8 222.4 164.4 202.4C164.8 199.2 163.6 195.6 161.6 193.6C159.2 191.2 156 189.6 153.2 189.6H102C98.8 189.6 96 190.8 93.6 193.6C91.2 195.6 90.4 198.8 90.8 202.4zM127.6 18.8C98 18.8 74 53.2 74 95.2S98 172 127.6 172C148.4 172 166.4 154.8 175.6 130V129.6C179.2 119.2 181.6 107.6 181.6 95.2V92.8C181.6 92.4 181.2 91.6 181.2 90.8V89.2C179.2 50.4 155.6 18.8 127.6 18.8z" />
    <glyph glyph-name="bulb"
      unicode="&#xEA48;"
      horiz-adv-x="256" d="M221.6 157.6C221.6 209.2 179.6 250.8 128 250.8C76.4 250.8 34.4 209.2 34.4 157.6C34.4 120.4 56 88.4 87.2 73.6V24.8C87.2 14 96 5.6 106.4 5.6H150.8C161.6 5.6 170 14.4 170 24.8V74.4C200.8 90 221.6 121.2 221.6 157.6zM156.4 67.2V24.4C156.4 21.6 154 19.2 151.2 19.2H106.8C104 19.2 101.6 21.6 101.6 24.4V67.2H104C111.6 65.2 119.6 64 128 64S144.4 65.2 152 67.2H156.4zM134.8 78.4V128.8L159.2 147.6C162.4 150 162.8 154.4 160.4 157.6C158 160.8 153.6 161.2 150.4 158.8L134.4 146.8V170.8C134.4 174.8 131.2 178 127.2 178S120 174.8 120 170.8V146L101.2 159.2C98 161.6 93.6 160.8 91.6 157.6C89.2 154.4 90 150 93.2 148L120.4 128.8V79.2C80.4 82 48.4 116 48.4 157.6C48.4 201.6 84 237.2 128 237.2S207.6 201.6 207.6 157.6C207.6 116 175.6 82 134.8 78.4z" />
    <glyph glyph-name="bullhorn"
      unicode="&#xEA49;"
      horiz-adv-x="256" d="M227.6 250.8H192.8C180.4 250.8 170 240.8 170 228L66.8 218H29.2C16 218 5.6 208 5.6 195.2V126.8C5.6 117.6 11.2 109.6 19.6 106L34 24.8C36.8 12.8 47.6 4.4 60.4 4.4C68.8 4.4 76.8 8 82 14.4C86.4 20 88.4 27.2 86.8 34L74.8 102.4L169.2 84V82.8C169.2 70 179.6 59.6 192.4 59.6H227.2C240 59.6 250.4 70 250.4 82.8V228C250.4 240.8 240 250.8 227.6 250.8zM19.6 195.2C19.6 200 24 204 29.2 204H60.4V118.8H29.2C24 118.8 19.6 122.8 19.6 127.2V195.2zM71.2 24C68.8 20.8 64.8 19.2 60.4 19.2C54.4 19.2 48.8 23.2 47.6 28.4L34 104.8H60.4L73.2 32C74 28 72.4 25.2 71.2 24zM74.4 117.2V204.4L169.6 214V98.4L74.4 117.2zM236.4 83.6C236.4 78.8 232.4 74.4 227.2 74.4H192.4C187.6 74.4 183.2000000000001 78.4 183.2000000000001 83.6V228C183.2000000000001 232.8 187.2000000000001 237.2 192.4 237.2H227.2000000000001C232.0000000000001 237.2 236.4000000000001 233.2 236.4000000000001 228V83.6z" />
    <glyph glyph-name="burger"
      unicode="&#xEA4A;"
      horiz-adv-x="256" d="M228.4 163.6C225.2 200.4 194 230 156 230H100C80.4 230 62.4 222.4 48.4 208.8C36 196.4 28.8 180.8 27.6 163.6C14.4 157.6 5.2 144.8 5.2 130V126.8C5.2 112 14.4 98.8 27.6 93.2C30.8 56 62 26.4 100 26.4H156C175.6 26.4 193.6 34 207.6 47.6C220 59.6 227.2 75.6 228.8 92.8C242 98.8 251.2 111.6 251.2 126.4V129.2C251.2 144.4 241.6 157.6 228.4 163.6zM58.4 198.8C69.2 210 84 216 100 216H156C185.2 216 209.6 194.4 214 166.8H42C44 178.8 49.6 190 58.4 198.8zM197.6 57.2C186.8 46 172 40 156 40H100C70.8 40 46.4 61.6 42 89.2H214C212.4 77.2 206.8 66 197.6 57.2zM237.2 126.4C237.2 113.6 226.4 103.2 213.2 103.2H43.2C30 103.2 19.2 113.6 19.2 126.4V129.6C19.2 142.4 30 152.8 43.2 152.8H213.6C226.4000000000001 152.8 236.8 142.4 236.8 129.6V126.4z" />
    <glyph glyph-name="bus"
      unicode="&#xEA4B;"
      horiz-adv-x="256" d="M85.6 120C73.2 120 63.2 110 63.2 97.6C63.2 85.2 73.2 75.2 85.6 75.2S108 85.2 108 97.6C108 110 98 120 85.6 120zM85.6 88.8C80.8 88.8 77.2 92.8 77.2 97.2C77.2 102 81.2 105.6 85.6 105.6S94 101.6 94 97.2S90.4 88.8 85.6 88.8zM170.4 120C158 120 148 110 148 97.6C148 85.2 158 75.2 170.4 75.2C182.8 75.2 192.8 85.2 192.8 97.6C192.8 110 182.8 120 170.4 120zM170.4 88.8C165.6 88.8 162 92.8 162 97.2C162 102 166 105.6 170.4 105.6C175.2 105.6 178.8 101.6 178.8 97.2S175.2 88.8 170.4 88.8zM228.8 240.4H218C215.6 246.4 209.2 250.8 202 250.8H53.6C46.4 250.8 40.4 246.4 37.6 240.4H27.2C19.2 240.4 12.4 234.4 12 226.8V208.4C12 200.8 18.8 194.4 27.2 194.4H36.8V68.8C36.8 56.8 46 47.2 58 46.8V28C58 15.2 68.4 4.8 81.2 4.8H91.2C104 4.8 114.4 15.2 114.4 28V47.2H142.4V28C142.4 15.2 152.8 4.8 165.6 4.8H175.6C188.4 4.8 198.8 15.2 198.8 28V47.2C210.4 47.6 220 57.6 220 69.2V194.8H229.6C238 194.8 244.8 201.2 244.8 208.8V226.4C244.4 234.4 237.2 240.4 228.8 240.4zM53.6 236.8H202C203.6 236.8 205.2 235.2 205.2 233.6V208.4H50.8V234C50.8 235.6 52 236.8 53.6 236.8zM205.2 145.6H135.2V194.8H205.6V145.6zM50.8 145.6V194.8H121.2V145.6H50.8zM27.2 208.8C26.4 208.8 26 209.2 26 209.2V226S26.4 226.4 27.2 226.4H36.8V208.8H27.2zM100 28C100 23.2 96 18.8 90.8 18.8H80.8C76 18.8 71.6 22.8 71.6 28V47.2H99.6V28zM184.4 28C184.4 23.2 180.4 18.8 175.2 18.8H165.2C160.4 18.8 156 22.8 156 28V47.2H184V28zM197.2 61.2H58.8C54.4 61.2 50.4 64.8 50.4 69.6V131.6H205.2V69.6C205.2 64.8 201.6 61.2 197.2 61.2zM230.4000000000001 209.2C230.0000000000001 209.2 229.6 208.8 229.2000000000001 208.8H219.6000000000001V226.4H229.2000000000001C230.0000000000001 226.4 230.4000000000001 226 230.4000000000001 226V209.2z" />
    <glyph glyph-name="cake"
      unicode="&#xEA4C;"
      horiz-adv-x="256" d="M236 135.2H229.6V213.2C229.6 228.4 217.2 241.2 201.6 241.2H53.6C38.4 241.2 25.6 228.8 25.6 213.2V135.2H20C12 135.2 5.2 128.8 5.2 120.4V43.2C5.2 28 17.6 15.2 33.2 15.2L223.6 14.8C231.2 14.8 238.0000000000001 17.6 243.2 22.8C248.4 28 251.2 35.2 251.2 42.4V120.4C251.2 128.4 244.4 135.2 236.0000000000001 135.2zM54 227.2H202C209.6 227.2 216 220.8 216 213.2V193.6C206.4 192.4 200.8 188.8 195.6 185.6C190 182 185.6 179.2 175.6 179.2S161.2 182 155.6 185.6C149.2 189.6 142 194 128 194C114 194 106.8 189.6 100.4 185.6C94.8 182 90.4 179.2 80.4 179.2S66 182 60.4 185.6C55.2 188.8 49.6 192.4 40 193.6V213.2C40 220.8 46.4 227.2 54 227.2zM40 179.6C45.2 178.4 48.8 176.4 53.2 174C59.6 170 66.8 165.6 80.8 165.6C94.8 165.6 102 170 108.4 174C114 177.6 118.4 180.4 128.4 180.4S142.8 177.6 148.4 174C154.8 170 162 165.6 176 165.6S197.2 170 203.6 174C207.6 176.4 211.2 178.8 216.8 179.6V135.2H40V179.6zM20 121.2H236C236.4 121.2 236.8 120.8 236.8 120.4V92C224.8 90.8 217.6 86.4 211.2 82.4C204.4 78 198.4 74.4 186 74.4C173.6 74.4 167.6 78 160.8000000000001 82.4C153.2000000000001 87.2 144.4 92.4 128.0000000000001 92.4S102.8000000000001 87.2 95.2000000000001 82.4C88.4000000000001 78 82.4000000000001 74.4 70.0000000000001 74.4S51.6000000000001 78 44.8000000000001 82.4C38.4000000000001 86.4 31.2000000000001 90.8 19.2000000000001 92V120.4C19.2000000000001 120.8 19.2000000000001 121.2 20.0000000000001 121.2zM232.8 33.2C230 30.4 226.8 29.2 223.2 29.2H32.8C25.2 29.2 18.8 35.6 18.8 43.2V78.4C26.8 77.2 31.6 74.4 37.2 70.8C44.8 66 53.6 60.8 70 60.8S95.2 66 102.8 70.8C109.6 75.2 115.6 78.8 128 78.8S146.4 75.2 153.2 70.8C160.8 66 169.6 60.8 186 60.8S211.2 66 218.8 70.8C224.4 74.4 229.2 77.2 237.2 78.4V43.2C237.2 39.2 235.6 35.6 232.8 33.2z" />
    <glyph glyph-name="calculator"
      unicode="&#xEA4D;"
      horiz-adv-x="256" d="M224 250.8H32C17.2 250.8 4.8 238.8 4.8 223.6V32.4C4.8 17.6 16.8 5.2 32 5.2H224C238.8 5.2 251.2 17.2 251.2 32.4V223.6C251.2 238.4 238.8 250.8 224 250.8zM237.2 223.6V134.8H135.2V236.8H224C231.2 236.8 237.2 230.8 237.2 223.6zM32 236.8H121.2V135.2H19.2V223.6C19.2 230.8 24.8 236.8 32 236.8zM19.2 32.4V120.8H121.2V19.2H32C24.8 19.2 19.2 25.2 19.2 32.4zM224 19.2H135.2V120.8H237.2V32C237.2 25.2 231.2 19.2 224 19.2zM49.2 173.6H63.2V159.6C63.2 155.6 66.4 152.4 70.4 152.4S77.6 155.6 77.6 159.6V173.6H91.6C95.6 173.6 98.8 176.8 98.8 180.8S95.6 188 91.6 188H77.6V202C77.6 206 74.4 209.2 70.4 209.2S63.2 206 63.2 202V188H49.2C45.2 188 42 184.8 42 180.8S45.2 173.6 49.2 173.6zM176 186L165.2 175.2C162.4 172.4 162.4 168 165.2 165.2C166.4 164 168.4 163.2 170 163.2C171.6 163.2 173.6 164 174.8 165.2L185.6 176L196.4 165.2C197.6 164 199.6 163.2 201.2000000000001 163.2C202.8000000000001 163.2 204.8000000000001 164 206.0000000000001 165.2C208.8000000000001 168 208.8000000000001 172.4 206.0000000000001 175.2L196 186L206.8 196.8C209.6 199.6 209.6 204 206.8 206.8S199.6 209.6 196.8 206.8L186 196L175.2 206.8C172.4 209.6 168 209.6 165.2 206.8S162.4 199.6 165.2 196.8L176 186zM86 82.4H54.4C50.4 82.4 47.2 79.2 47.2 75.2S50.4 68 54.4 68H86C90 68 93.2 71.2 93.2 75.2S89.6 82.4 86 82.4zM196.8 90.8L165.2 59.2C162.4 56.4 162.4 52 165.2 49.2C166.4 48 168.4 47.2 170 47.2C171.6 47.2 173.6 48 174.8000000000001 49.2L206.4 80.8C209.2000000000001 83.6 209.2000000000001 88 206.4 90.8C204 93.6 199.6 93.6 196.8000000000001 90.8z" />
    <glyph glyph-name="calendar"
      unicode="&#xEA4E;"
      horiz-adv-x="256" d="M71.2 104.8H58C55.6 104.8 54 103.2 54 100.8V88C54 85.6 55.6 84 58 84H71.2C73.6 84 75.2 85.6 75.2 88V100.8C75.2 103.2 73.6 104.8 71.2 104.8zM113.6 104.8H100.4C98 104.8 96.4 103.2 96.4 100.8V88C96.4 85.6 98 84 100.4 84H113.6C116 84 117.6 85.6 117.6 88V100.8C117.6 103.2 115.6 104.8 113.6 104.8zM155.6 104.8H142.4C140 104.8 138.4 103.2 138.4 100.8V88C138.4 85.6 140 84 142.4 84H155.6C158 84 159.6 85.6 159.6 88V100.8C159.6 103.2 158 104.8 155.6 104.8zM198 104.8H184.8C182.4 104.8 180.8 103.2 180.8 100.8V88C180.8 85.6 182.4 84 184.8 84H198C200.4 84 202 85.6 202 88V100.8C202 103.2 200 104.8 198 104.8zM71.2 63.2H58C55.6 63.2 54 61.6 54 59.2V46.4C54 44 55.6 42.4 58 42.4H71.2C73.6 42.4 75.2 44 75.2 46.4V59.2C75.2 61.6 73.6 63.2 71.2 63.2zM113.6 63.2H100.4C98 63.2 96.4 61.6 96.4 59.2V46.4C96.4 44 98 42.4 100.4 42.4H113.6C116 42.4 117.6 44 117.6 46.4V59.2C117.6 61.6 115.6 63.2 113.6 63.2zM155.6 63.2H142.4C140 63.2 138.4 61.6 138.4 59.2V46.4C138.4 44 140 42.4 142.4 42.4H155.6C158 42.4 159.6 44 159.6 46.4V59.2C159.6 61.6 158 63.2 155.6 63.2zM198 63.2H184.8C182.4 63.2 180.8 61.6 180.8 59.2V46.4C180.8 44 182.4 42.4 184.8 42.4H198C200.4 42.4 202 44 202 46.4V59.2C202 61.6 200 63.2 198 63.2zM228 193.6H134V206.8C143.2 209.2 150.4 218 150.4 228C150.4 240 140.4 250 128 250C115.6 250 105.6 240 105.6 228C105.6 218 112.4 209.6 122 206.8V193.6H28C16 193.6 6 183.6 6 171.6V28C6 16 16 6 28 6H228C240 6 250 16 250 28V171.6C250 183.6 240 193.6 228 193.6zM117.6 228C117.6 233.6 122 238 128 238C133.6 238 138.4 233.6 138.4 228S134 218 128 218C122.4 218 117.6 222.8 117.6 228zM28 181.6H228C233.6 181.6 238 177.2 238 171.6V142H18V171.6C18 177.2 22.4 181.6 28 181.6zM228 18H28C22.4 18 18 22.4 18 28V130H238V28C238 22.4 233.6 18 228 18z" />
    <glyph glyph-name="camera"
      unicode="&#xEA4F;"
      horiz-adv-x="256" d="M244 175.2C239.6 179.6 233.2 182.4 226.8 182.4H198.8C196 182.4 194 184.4 194 187.2V204.8C194 210.8 191.2 218 178.8 218H75.6C64 218 61.6 210.8 61.6 204.8V187.2C61.6 184.4 59.6 182.4 56.8 182.4H29.2C16 182.4 5.2 171.6 5.2 158.4V62C5.2 48.8 16 38 29.2 38H226.8C240 38 250.8 48.8 250.8 62V158.4C251.2 164.8 248.4 170.8 244 175.2zM236.8 62C236.8 56.4 232.4 52 226.8 52H29.2C23.6 52 19.2 56.4 19.2 62V158.4C19.2 164 23.6 168.4 29.2 168.4H56.8C67.2 168.4 75.6 176.8 75.6 187.2V204H180V187.2C180 176.8 188.4 168.4 198.8 168.4H226.8C229.6 168.4 232 167.2 234 165.6C236 163.6 236.8 161.2 236.8 158.4V62zM126.4 158.8C106 158.8 89.6 142.4 89.6 122S105.6 85.6 126.4 85.6C146.8 85.6 163.2 102 163.2 122C162.8 142 146 158.8 126.4 158.8zM126.4 99.6C113.6 99.6 103.6 109.2 103.6 122C103.6 134.8 113.6 144.8 126.4 144.8C138.8 144.8 149.2 134.4 149.2 122C148.8 109.6 138.8 99.6 126.4 99.6zM50 151.6C43.6 151.6 38 146.4 38 139.6C38 133.2 43.2 127.6 50 127.6S62 132.8 62 139.6S56.8 151.6 50 151.6z" />
    <glyph glyph-name="candy-cane"
      unicode="&#xEA50;"
      horiz-adv-x="256" d="M227.2 196.8C196.8 226.4 148.4 227.6 119.2 199.2L12.8 95.6C7.6 90.4 4.8 84 4.8 76.4S8 61.6 13.6 56C24.8 45.2 42.8 44.8 53.6 55.2L158.4 157.6C165.6 164.8 178 165.2 186 158.4C190.4 154.4 193.2 149.2 193.2 143.6C193.2 138.8 191.6 134 188 130.4L140.4 84C135.2 78.8 132.4 72.4 132.4 64.8S135.6 50 141.2 44.4C146.8 38.8 154.4 36 162 36C169.2 36 176 38.4 181.2 43.6L230 91.2C244 105.2 251.6 123.6 251.2 143.6C250.4 163.6 242 182.4 227.2 196.8zM44 65.2C38.4 60 29.6 60.4 23.6 66C20.8 68.8 19.2 72.4 19.2 76.4C19.2 80 20.4 83.2 22.8 85.6L50 112.4L78.4 99.2L44 65.2zM89.2 109.6L60.8 122.8L89.2 150.4L117.6 137.2L89.2 109.6zM171.2 54C165.6 48.8 156.8 49.2 150.8 54.8C148 57.6 146.4 61.2 146.4 65.2C146.4 68.8 147.6 72 150 74.4L162.4 86.4L190.8 73.2L171.2 54zM220 101.2L202 83.6L173.6 96.8L198 120.8C204.4 126.8 207.6 135.2 207.6 144C207.2 153.6 202.8 162.8 195.6 169.2C182 180.8 162 180 149.2 168L128.8 148L100 160.8L129.2 189.2C152.8 212.4 192.4 211.2 217.6 186.8C229.6 174.8 236.8 159.6 237.2 143.2C237.6 127.2 231.2 112.4 220 101.2z" />
    <glyph glyph-name="candy"
      unicode="&#xEA51;"
      horiz-adv-x="256" d="M241.6 230L229.6 242C222.8 248.8 213.6 252 204.4 250.8C194.8 249.6 186.8 244.8 181.6 236.8L166.8 214.4C141.2 222.4 111.6 216.4 91.6 196L60 164.4C46 150.4 38.4 132 38.4 112C38.4 104 39.6 96 42.4 88.4L20.4 74.4C12.4 69.2 7.2 60.8 6 51.2C4.8 41.6 8.4 32.4 15.2 25.6L27.2 13.6C33.2 7.6 41.2 4.4 49.2 4.4H52.4C61.6 5.2 70 10.4 75.2 18.4L90 41.2C97.2 38.8 104.8 37.6000000000001 112.8 37.6000000000001C132 37.6000000000001 150.8 44.8 165.2 59.2000000000001L176.8 70.8L196.4 90.4C210.4 104.4 218 122.8000000000001 218 142.8000000000001C218 150.8000000000001 216.8 158.8000000000001 214 166.4L236 180.4C244 185.6 249.6 194 250.4 203.6S248.4 223.2000000000001 241.6 230.0000000000001zM62.8 26.8C60 22.4 55.2 19.6 50 19.2C44.8 18.8 39.6 20.4 36 24L24 36C20.4 39.6 18.4 44.8 19.2 50C19.6 55.2 22.8 60 27.2 62.8L47.6 75.6000000000001C50.8 70.0000000000001 54.8 64.4000000000001 59.6 59.6000000000001C64.8 54.4000000000001 70.4 50.4000000000001 76.4 47.2L62.8 26.8zM69.6 70C58.4 81.2 52 96.4 52 112.4S58.4 143.6 69.6 154.8L76.8 162C82 158.4 86.8 157.6 90.8 156.8C95.2 156 98.8 155.2 103.2 150.8S108.4 143.2 109.2 138.4C110.4 133.2 111.6 126.4 119.2 118.8C126.8 111.2 133.2 110 138.8 109.2C143.2 108.4 146.8 107.6 151.2 103.2S156.4 95.6 157.2 90.8C158 86.8 158.8 82 162.4 76.8L155.2 69.6C131.2 46.4 93.2 46.4 69.6 70zM186.4 101.6L172.4 87.6C171.6 89.6 171.2 91.6 170.8 94C169.6 99.2 168.4 106 161.2 113.6C153.6 121.2 147.2 122.4 141.6 123.2C137.2 124 133.6 124.8 129.2 129.2S124 136.8 123.2 141.6C122 146.8 120.8 153.6 113.2 161.2C105.6 168.8 99.2 170 93.6 170.8C91.2 171.2 89.2 171.6 87.2 172.4L101.2 186.4C113.2 198 128.4 204 144 204C159.6 204 174.8 198 186.8 186.4C198 174.8 204 160 204 144S198 112.8 186.4 101.6zM228.8 193.2L208.4 180.4C205.2 186 201.2 191.6 196.4 196C191.2 201.2 185.6 205.2 180 208.4L193.2 228.8C196 233.2 200.8 236 206 236.4C211.2 237.6 216.4 235.6 220 232L232 220C235.6 216.4 237.6 211.2 236.8 206C236.4 200.8 233.2 196 228.8 193.2z" />
    <glyph glyph-name="capsule"
      unicode="&#xEA52;"
      horiz-adv-x="256" d="M82 5.2C62.4 5.2 42.4 12.8 27.6 27.6C-2.4 57.6 -2.4 106.4 27.6 136.4L119.6 228.4C149.6 258.4 198.4 258.4 228.4 228.4S258.4 149.6 228.4 119.6L136.4 27.6C121.6 12.4 101.6 5.2 82 5.2zM37.6 37.6C62 13.2 102 13.2 126.8 37.6L168 78.8L78.4 167.6L37.6 126.4C12.8 102 12.8 62 37.6 37.6zM88.4 177.6L177.6 88.4L218.8 129.6C243.2 154 243.2 194 218.8 218.8C194.4 243.2 154.4 243.2 129.6 218.8L88.4 177.6z" />
    <glyph glyph-name="car-alt"
      unicode="&#xEA53;"
      horiz-adv-x="256" d="M58.4 104H84.8C88.8 104 92 107.2 92 111.2S88.8 118.4 84.8 118.4H58.4C54.4 118.4 51.2 115.2 51.2 111.2S54.4 104 58.4 104zM167.6 104H194C198 104 201.2 107.2 201.2 111.2S198 118.4 194 118.4H167.6C163.6 118.4 160.4 115.2 160.4 111.2S164 104 167.6 104zM244 169.6H230.4L210.4 220.4C208 227.2 201.2 232 194 232H60.4C53.2 232 46.8 227.6 44 220.8L24 169.6H12C8 169.6 4.8 166.4 4.8 162.4S8 155.6 12 155.6H17.6V84.4C17.6 74 26 65.6 36 65.6V43.2C36 32.8 44.4 24 55.2 24H72.8C83.2 24 92 32.4 92 43.2V65.6H161.2V43.2C161.2 32.8 169.6 24 180.4 24H198C208.4 24 217.2 32.4 217.2 43.2V65.6H218.8C229.2 65.6 238 74 238 84.8V155.6H244C248 155.6 251.2 158.8 251.2 162.8S248 169.6 244 169.6zM57.2 215.6C57.6 217.2 59.2 218 60.4 218H194C195.6 218 196.8 217.2 197.2 215.6L219.6 159.2H34.8L57.2 215.6zM77.6 42.8C77.6 40 75.2 37.6 72.4 37.6H54.8C52 37.6 49.6 40 49.6 42.8V65.2H77.2V42.8zM202.4 42.8C202.4 40 200 37.6 197.2 37.6H179.6C176.8 37.6 174.4 40 174.4 42.8V65.2H202V42.8zM223.2 84.4C223.2 81.6 220.8 79.2 218 79.2H36.4C33.6 79.2 31.2 81.6 31.2 84.4V145.6H222.8V84.4z" />
    <glyph glyph-name="car"
      unicode="&#xEA54;"
      horiz-adv-x="256" d="M68.4 133.2C53.6 133.2 41.6 121.2 41.6 106.8C41.6 92.4 53.6 80.4 68.4 80.4S95.2 92.4 95.2 106.8C95.2 121.6 83.2 133.2 68.4 133.2zM68.4 94.8C61.2 94.8 55.6 100.4 55.6 107.2S61.2 119.6 68.4 119.6S81.2 114 81.2 107.2S75.6 94.8 68.4 94.8zM187.2 134C172.4 134 160.4 122 160.4 107.6S172.4 81.2 187.2 81.2S214 93.2 214 107.6S202 134 187.2 134zM187.2 94.8C180 94.8 174.4 100.4 174.4 107.2S180 119.6 187.2 119.6C194.4 119.6 200 114 200 107.2S194.4 94.8 187.2 94.8zM138 114.4H118C114 114.4 110.8 111.2 110.8 107.2S114 100 118 100H138C142 100 145.2 103.2 145.2 107.2S141.6 114.4 138 114.4zM232.8 162.4L228.8 204.8C227.2 226.8 207.2 244 183.2 244H72.8C48.8 244 28.8 226.8 27.2 204.8L23.2 162.4C12.8 160 4.8 150.8 4.8 140V74.4C4.8 61.6 15.2 51.2 28 51.2H31.6V30.4C31.6 20 40 11.2 50.8 11.2H66.4C76.8 11.2 85.6 19.6 85.6 30.4V51.2H170.8V30.4C170.8 20 179.2 11.2 190 11.2H205.6C216 11.2 224.8 19.6 224.8 30.4V51.2H228C240.8 51.2 251.2 61.6 251.2 74.4V140C251.2 151.2 243.2 160.4 232.8 162.4zM40.8 203.6C42 218.4 56 230 72.8 230H183.2C200 230 213.6 218.4 215.2 203.6L218.8 162.8H37.2L40.8 203.6zM71.6 30.8C71.6 28 69.2 25.6 66.4 25.6H50.8C48 25.6 45.6 28 45.6 30.8V51.6H71.2V30.8zM210.4 30.8C210.4 28 208 25.6 205.2000000000001 25.6H189.6000000000001C186.8000000000001 25.6 184.4000000000001 28 184.4000000000001 30.8V51.6H210.0000000000001V30.8zM237.2000000000001 74.4C237.2000000000001 69.6 233.2000000000001 65.2 228.0000000000001 65.2H28C23.2 65.2 18.8 69.2 18.8 74.4V140C18.8 144.8 22.8 149.2 28 149.2H228C232.8 149.2 237.2 145.2 237.2 140V74.4z" />
    <glyph glyph-name="caravan"
      unicode="&#xEA55;"
      horiz-adv-x="256" d="M71.2 177.2H47.6C41.6 177.2 36.4 172.4 36.4 166V142.4C36.4 136.4 41.2 131.2 47.6 131.2H71.2C77.2 131.2 82.4 136 82.4 142.4V166C82.4 172.4 77.2 177.2 71.2 177.2zM68.4 145.6H50.8V163.2H68.4V145.6zM244 92.8H219.2V149.2C219.2 150.8 218.8 152.8 217.6 154.4L186.8 204C185.2 206.8 182 208.8 178.4 208.8H14.4C9.2 208.8 4.8 204.4 4.8 199.2V88.8C4.8 83.6 9.2 79.2 14.4 79.2H26C26 78 25.6 76.8 25.6 75.6C25.6 60 38.4 47.6 53.6 47.6C69.2 47.6 81.6 60.4 81.6 75.6C81.6 76.8 81.6 78 81.2 79.2H244C248 79.2 251.2 82.4 251.2 86.4S248 92.8 244 92.8zM54 61.2C46.4 61.2 40 67.6 40 75.2S46.4 89.2 54 89.2S68 82.8 68 75.2S62 61.2 54 61.2zM54 103.2C45.2 103.2 37.2 99.2 32 92.8H19.2V194.8H176.8L205.2 148V92.8H166.4V158C166.4 162.8 162.4 166.8 157.6 166.8H129.2C124.4 166.8 120.4 162.8 120.4 158V92.8H76C70.8 99.2 63.2 103.2 54 103.2zM135.2 92.8V152.8H152.8V92.8H135.2z" />
    <glyph glyph-name="cart-full"
      unicode="&#xEA56;"
      horiz-adv-x="256" d="M148.4 63.2C132.4 63.2 119.6 50 119.6 34S132.4 4.8 148.4 4.8S177.2 18 177.2 34S164.4 63.2 148.4 63.2zM148.4 18.8C140 18.8 133.6 25.6 133.6 34S140.4 49.2 148.4 49.2C156.8 49.2 163.2 42.4 163.2 34S156.8 18.8 148.4 18.8zM71.6 63.2C55.6 63.2 42.8 50 42.8 34S55.6 4.8 71.6 4.8S100.4 18 100.4 34S87.6 63.2 71.6 63.2zM71.6 18.8C63.2 18.8 56.8 25.6 56.8 34S63.6 49.2 71.6 49.2C80 49.2 86.4 42.4 86.4 34S80 18.8 71.6 18.8zM233.6 250.8H212C203.2 250.8 195.6 244.4 194.4 235.6L187.6 187.2H166.8V219.2C166.8 225.2 162 230 156 230H124.4C124 236 119.6 240.4 114 240.4H79.2C73.2 240.4 68.4 235.2 68.4 228.8V219.2H36.8C30.8 219.2 26 214.8 26 208.8V187.2C22.8 186.8 19.6 185.6 17.6 182.8C15.6 180 14.8 176.4 15.6 173.2V172.8L40.4 97.2C41.6 92.4 46.4 88.8 51.6 88.8H163.2C177.2 88.8 189.2 99.2 191.2 113.2L208.4 233.6C208.8 235.2 210 236.8 212 236.8H233.6C237.6 236.8 240.8 240 240.8 244S237.6 250.8 233.6 250.8zM152.8 187.6H124.4V216H152.8V187.6zM82.4 226.4H110.8V187.6H82.4V226.4zM40 205.2H68.4V187.6H40V205.2zM177.2 115.2C176.4 108.4 170 102.8 163.2 102.8H53.6L30.4 173.6H186L177.2 115.2z" />
    <glyph glyph-name="cart"
      unicode="&#xEA57;"
      horiz-adv-x="256" d="M163.6 63.2C148 63.2 135.2 50 135.2 34S148 4.8 163.6 4.8S192 18 192 34C192.4 50 179.6 63.2 163.6 63.2zM163.6 18.8C155.6 18.8 149.2 25.6 149.2 34C149.2 42.4 155.6 49.2 163.6 49.2S178 42.4 178 34C178.4 25.6 171.6 18.8 163.6 18.8zM72.8 63.2C57.2 63.2 44.4 50 44.4 34S57.2 4.8 72.8 4.8S101.2 18 101.2 34C101.6 50 88.8 63.2 72.8 63.2zM72.8 18.8C64.8 18.8 58.4 25.6 58.4 34C58.4 42.4 64.8 49.2 72.8 49.2S87.2 42.4 87.2 34C87.6 25.6 80.8 18.8 72.8 18.8zM231.2 250.8H205.6C199.6 250.8 194.4 246.4 193.6 240.4L186.4 187.6H29.2C25.6 187.6 22.4 186 20.4 183.2C18.4 180.4 17.6 176.8 18.4 173.6V173.2L42.8 97.6C44 92.8 48.4 89.2 54 89.2H172C180.8 89.2 188 95.6 189.2 104.4L207.6 237.2H231.6C235.6 237.2 238.8 240.4 238.8 244.4S235.2 250.8 231.2 250.8zM174.8 106.4C174.4 104.8 173.2 103.2 171.2 103.2H55.2L32.4 173.6H184L174.8 106.4z" />
    <glyph glyph-name="certificate"
      unicode="&#xEA58;"
      horiz-adv-x="256" d="M228 114H208.8V220.8C208.8 236.8 196.4 250 180.8 250.8H50C25.2 251.2 5.2 230 5.2 204.4V186.8C5.2 179.6 11.2 173.6 18.4 173.6H47.6V60.8C47.6 47.6 58.8 36.8 72.4 36.8H90V13.6C90 10.4 91.6 7.6 94.4 6C95.6 5.2 97.2 4.8 98.4 4.8C100 4.8 101.6 5.2 103.2 6L123.6 19.2L143.6 6.4L144.4 6C147.2 4.8 150.4 4.8 153.2 6.4C155.6 8 157.2 10.8 157.2 13.6V36.8H228C240.8 36.8 251.2 47.2 251.2 60V91.2C251.2 103.6 240.8 114 228 114zM19.2 204.4C19.2 222.4 33.2 237.2 50 237.2H148C144.4 231.6 142 224.8 142 217.6V187.6H19.2V204.4zM122.8 74C106.4 74 93.2 87.2 93.2 103.2S106.4 132.4 122.8 132.4C139.2 132.4 152.4 119.2 152.4 103.2S139.2 74 122.8 74zM128.4 32.4C124.8 34.8 120.4 34.8 116.8 32.4L103.2 23.6V64.4C109.2 61.6 115.6 60 122.4 60C129.2 60 136 61.6 142 64.4V23.6L128.4 32.4zM156 50.8V75.6C162.4 83.2 166.4 92.8 166.4 103.6C166.4 127.6 146.8 146.8 122.8 146.8S79.2 127.2 79.2 103.6C79.2 92.8 83.2 83.2 89.6 75.6V51.2H72C66 51.2 61.2 55.6 61.2 61.2V173.6H143.2C150.4 173.6 156.4 179.6 156.4 186.8V217.6C156.4 227.6 163.6 236.4 173.2 237.2H179.6C188 237.2 195.2 230 195.2 221.2V51.2H156zM237.2 59.6C237.2 54.8 233.2 50.4 228 50.4H208.8V100H228C232.8 100 237.2 96 237.2 90.8V59.6z" />
    <glyph glyph-name="check-box"
      unicode="&#xEA59;"
      horiz-adv-x="256" d="M248.8 222.4C246 225.2 241.6 225.2 238.8 222.4L220 203.6V216.4C220 226.8 211.6 235.6 200.8 235.6H24C13.6 235.6 4.8 227.2 4.8 216.4V39.2C4.8 28.8 13.2 20 24 20H201.2C211.6 20 220.4 28.4 220.4 39.2V183.6L249.2 212.4C251.6 215.2 251.6 220 248.8 222.4zM206 39.6C206 36.8 203.6 34.4 200.8 34.4H24C21.2 34.4 18.8 36.8 18.8 39.6V216.4C18.8 219.2 21.2 221.6 24 221.6H201.2C204 221.6 206.4 219.2 206.4 216.4V189.2L161.6 144.8L134.4 172C131.6 174.8 127.2 174.8 124.4 172S121.6 164.8 124.4 162L156.8 129.6C157.2 129.2 157.2 129.2 157.6 129.2L158 128.8C158.4 128.8 158.4 128.4 158.8000000000001 128.4L159.2000000000001 128C159.6000000000001 128 159.6000000000001 128 160.0000000000001 127.6H163.2C163.6 127.6 163.6 127.6 164 128C164.4 128 164.4 128.4 164.4 128.4C164.8 128.4 164.8 128.8 165.2 128.8L165.6 129.2C166 129.2 166 129.6 166.4 129.6L206 169.6V39.6z" />
    <glyph glyph-name="checkmark-circle"
      unicode="&#xEA5A;"
      horiz-adv-x="256" d="M128 4.8C60 4.8 5.2 60 5.2 128S60 250.8 128 250.8S251.2 196 251.2 128S196 4.8 128 4.8zM128 236.8C68 236.8 19.2 188 19.2 128S68 18.8 128 18.8S237.2 68 237.2 128S188 236.8 128 236.8zM114.4 100C111.6 100 109.2 100.8 106.8 102.8L80.4 128.4C77.6 131.2 77.6 135.6 80.4 138.4S87.6 141.2 90.4 138.4L114.4 114.8L165.6 164.4C168.4 167.2 172.8 167.2 175.6 164.4S178.4 157.2 175.6 154.4L122.4 102.4C119.6 100.8 116.8 100 114.4 100z" />
    <glyph glyph-name="checkmark"
      unicode="&#xEA5B;"
      horiz-adv-x="256" d="M249.2 205.2C246.4 208 242 208 239.2 205.2L93.2 63.6C92 62.4 90.4 62.4 89.2 63.6L16.8 134C14 136.8 9.6 136.8 6.8 134S4 126.8 6.8 124L79.2 53.6C82.4 50.4 86.8 48.8 90.8 48.8C95.2 48.8 99.2 50.4 102.4 53.6L248.4 195.2C251.6 198 251.6 202.4 249.2 205.2z" />
    <glyph glyph-name="chef-hat"
      unicode="&#xEA5C;"
      horiz-adv-x="256" d="M189.6 206C181.2 232.8 156.4 250.8 128 250.8S74.8 232.8 66.4 206C34.8 199.6 12 172 12 139.6V139.2C12 114.4 30.8 93.6 55.2 90.4C55.2 77.2 56 47.2 56 28.4C56 15.6 66.8 5.2 79.6 5.2H176C188.8 5.2 199.2 15.6 199.6 28.4L200.8 90.8C225.6 93.6 244 114.8 244 139.6C244 172 221.2 199.6 189.6 206zM176.4 18.8H79.6C74.4 18.8 70 23.2 70 28C70 33.6 70 40.4 69.6 47.6H186L185.6 28C185.6 23.2 181.6 18.8 176.4 18.8zM196.4 104C191.2 103.6 187.6 99.6 187.2 94.8L186.4 62H69.6C69.2 76.4 69.2 89.6 69.2 94.8C69.2 99.6 65.2 103.6 60.4 104C41.2 105.2 26 120.4 26 139.2V139.6C26 165.2 44.4 187.6 69.6 192.4C74.4 193.2 78 196.8 79.6 201.2C86.4 222.4 105.6 236.8 128 236.8S170 222.4 176.4 201.2C178 196.8 181.6 193.2 186.4 192.4C211.6 187.6 230 165.2 230 139.6C230 120.8 215.2 104.8 196.4 104z" />
    <glyph glyph-name="chevron-down-circle"
      unicode="&#xEA5D;"
      horiz-adv-x="256" d="M187.2 154.8L128 114.4L68.8 154.8C65.6 156.8 61.2 156 59.2 152.8S58 145.2 61.2 143.2L122.8 101.6C124 100.4 126 100 128 100S132 100.4 134 101.6L195.2 143.2C198.4 145.2 199.2 149.6 197.2 152.8C194.8 156.4 190.4 157.2 187.2 154.8zM128 250.8C60 250.8 5.2 196 5.2 128S60 4.8 128 4.8S251.2 60 251.2 128S196 250.8 128 250.8zM128 18.8C68 18.8 19.2 68 19.2 128S68 236.8 128 236.8S237.2 188 237.2 128S188 18.8 128 18.8z" />
    <glyph glyph-name="chevron-down"
      unicode="&#xEA5E;"
      horiz-adv-x="256" d="M128 68.8C123.2 68.8 118.4 70.4 114.4 74L7.2 174.8C4.4 177.6 4.4 182 6.8 184.8C9.6 187.6 14 187.6 16.8 185.2L124 84.4C126 82.4 129.6 82.4 132 84.4L239.2 185.2C242 188 246.4 187.6 249.2 184.8S251.6 177.6 248.8 174.8L141.6 74.4C137.6 70.8 132.8 68.8 128 68.8z" />
    <glyph glyph-name="chevron-left-circle"
      unicode="&#xEA5F;"
      horiz-adv-x="256" d="M114.4 128L154.8 187.6C156.8 190.8 156 195.2 152.8 197.2S145.2 198.4 143.2 195.2L101.6 133.6C99.2 130.4 99.2 125.2 101.6 122L143.2 60.8C144.4 58.8 146.8 57.6 148.8 57.6C150 57.6 151.6 58 152.8 58.8C156 60.8 156.8 65.2 154.8 68.4L114.4 128zM128 250.8C60 250.8 5.2 196 5.2 128S60 4.8 128 4.8S251.2 60 251.2 128S196 250.8 128 250.8zM128 18.8C68 18.8 19.2 68 19.2 128S68 236.8 128 236.8S237.2 188 237.2 128S188 18.8 128 18.8z" />
    <glyph glyph-name="chevron-left"
      unicode="&#xEA60;"
      horiz-adv-x="256" d="M180 4.8C178 4.8 176.4 5.6 174.8 7.2L74.4 114.4C67.6 122 67.6 134 74.4 141.2L174.8 248.8C177.6 251.6 182 251.6 184.8 249.2C187.6 246.4 187.6 242 185.2 239.2L84.4 132C82.4 130 82.4 126.4 84.4 124L185.2 16.8C188 14 187.6 9.6 184.8 6.8C183.6 5.6 181.6 4.8 180 4.8z" />
    <glyph glyph-name="chevron-right-circle"
      unicode="&#xEA61;"
      horiz-adv-x="256" d="M112.8 195.2C110.8 198.4 106.4 199.2 103.2 197.2C100 195.2 99.2 190.8 101.2 187.6L141.6 128L101.2 68.8C99.2 65.6 100 61.2 103.2 59.2C104.4 58.4 105.6 58 107.2 58C109.6 58 111.6 59.2 112.8 61.2L154.4 122.8C156.8 126 156.8 131.2 154.4 134.4L112.8 195.2zM128 250.8C60 250.8 5.2 196 5.2 128S60 4.8 128 4.8S251.2 60 251.2 128S196 250.8 128 250.8zM128 18.8C68 18.8 19.2 68 19.2 128S68 236.8 128 236.8S237.2 188 237.2 128S188 18.8 128 18.8z" />
    </font>
</defs>
</svg>
